  0
SECTION
  2
HEADER
  9
$ACADVER
  1
AC1018
  9
$ACADMAINTVER
 70
     0
  9
$DWGCODEPAGE
  3
ANSI_1252
  9
$INSBASE
 10
0.0
 20
0.0
 30
0.0
  9
$EXTMIN
 10
-239.750000494797
 20
4.5998174109402
 30
0.0
  9
$EXTMAX
 10
57.24999950520112
 20
214.5998174109403
 30
0.0
  9
$LIMMIN
 10
0.0
 20
0.0
  9
$LIMMAX
 10
12.0
 20
9.0
  9
$ORTHOMODE
 70
     0
  9
$REGENMODE
 70
     1
  9
$FILLMODE
 70
     1
  9
$QTEXTMODE
 70
     0
  9
$MIRRTEXT
 70
     1
  9
$LTSCALE
 40
1.0
  9
$ATTMODE
 70
     1
  9
$TEXTSIZE
 40
0.2
  9
$TRACEWID
 40
0.05
  9
$TEXTSTYLE
  7
Standard
  9
$CLAYER
  8
0
  9
$CELTYPE
  6
ByLayer
  9
$CECOLOR
 62
   256
  9
$CELTSCALE
 40
1.0
  9
$DISPSILH
 70
     0
  9
$DIMSCALE
 40
1.0
  9
$DIMASZ
 40
0.18
  9
$DIMEXO
 40
0.0625
  9
$DIMDLI
 40
0.38
  9
$DIMRND
 40
0.0
  9
$DIMDLE
 40
0.0
  9
$DIMEXE
 40
0.18
  9
$DIMTP
 40
0.0
  9
$DIMTM
 40
0.0
  9
$DIMTXT
 40
0.18
  9
$DIMCEN
 40
0.09
  9
$DIMTSZ
 40
0.0
  9
$DIMTOL
 70
     0
  9
$DIMLIM
 70
     0
  9
$DIMTIH
 70
     1
  9
$DIMTOH
 70
     1
  9
$DIMSE1
 70
     0
  9
$DIMSE2
 70
     0
  9
$DIMTAD
 70
     0
  9
$DIMZIN
 70
     0
  9
$DIMBLK
  1

  9
$DIMASO
 70
     1
  9
$DIMSHO
 70
     1
  9
$DIMPOST
  1

  9
$DIMAPOST
  1

  9
$DIMALT
 70
     0
  9
$DIMALTD
 70
     2
  9
$DIMALTF
 40
25.4
  9
$DIMLFAC
 40
1.0
  9
$DIMTOFL
 70
     0
  9
$DIMTVP
 40
0.0
  9
$DIMTIX
 70
     0
  9
$DIMSOXD
 70
     0
  9
$DIMSAH
 70
     0
  9
$DIMBLK1
  1

  9
$DIMBLK2
  1

  9
$DIMSTYLE
  2
Standard
  9
$DIMCLRD
 70
     0
  9
$DIMCLRE
 70
     0
  9
$DIMCLRT
 70
     0
  9
$DIMTFAC
 40
1.0
  9
$DIMGAP
 40
0.09
  9
$DIMJUST
 70
     0
  9
$DIMSD1
 70
     0
  9
$DIMSD2
 70
     0
  9
$DIMTOLJ
 70
     1
  9
$DIMTZIN
 70
     0
  9
$DIMALTZ
 70
     0
  9
$DIMALTTZ
 70
     0
  9
$DIMUPT
 70
     0
  9
$DIMDEC
 70
     4
  9
$DIMTDEC
 70
     4
  9
$DIMALTU
 70
     2
  9
$DIMALTTD
 70
     2
  9
$DIMTXSTY
  7
Standard
  9
$DIMAUNIT
 70
     0
  9
$DIMADEC
 70
     0
  9
$DIMALTRND
 40
0.0
  9
$DIMAZIN
 70
     0
  9
$DIMDSEP
 70
    46
  9
$DIMATFIT
 70
     3
  9
$DIMFRAC
 70
     0
  9
$DIMLDRBLK
  1

  9
$DIMLUNIT
 70
     2
  9
$DIMLWD
 70
    -2
  9
$DIMLWE
 70
    -2
  9
$DIMTMOVE
 70
     0
  9
$LUNITS
 70
     2
  9
$LUPREC
 70
     4
  9
$SKETCHINC
 40
0.1
  9
$FILLETRAD
 40
0.5
  9
$AUNITS
 70
     0
  9
$AUPREC
 70
     0
  9
$MENU
  1
.
  9
$ELEVATION
 40
0.0
  9
$PELEVATION
 40
0.0
  9
$THICKNESS
 40
0.0
  9
$LIMCHECK
 70
     0
  9
$CHAMFERA
 40
0.5
  9
$CHAMFERB
 40
0.5
  9
$CHAMFERC
 40
1.0
  9
$CHAMFERD
 40
0.0
  9
$SKPOLY
 70
     0
  9
$TDCREATE
 40
2458146.419476563
  9
$TDUCREATE
 40
2458146.377809896
  9
$TDUPDATE
 40
2458146.419477107
  9
$TDUUPDATE
 40
2458146.37781044
  9
$TDINDWG
 40
0.0000000116
  9
$TDUSRTIMER
 40
0.0000000116
  9
$USRTIMER
 70
     1
  9
$ANGBASE
 50
0.0
  9
$ANGDIR
 70
     0
  9
$PDMODE
 70
     0
  9
$PDSIZE
 40
0.0
  9
$PLINEWID
 40
0.0
  9
$SPLFRAME
 70
     0
  9
$SPLINETYPE
 70
     6
  9
$SPLINESEGS
 70
     8
  9
$HANDSEED
  5
290
  9
$SURFTAB1
 70
     6
  9
$SURFTAB2
 70
     6
  9
$SURFTYPE
 70
     6
  9
$SURFU
 70
     6
  9
$SURFV
 70
     6
  9
$UCSBASE
  2

  9
$UCSNAME
  2

  9
$UCSORG
 10
0.0
 20
0.0
 30
0.0
  9
$UCSXDIR
 10
1.0
 20
0.0
 30
0.0
  9
$UCSYDIR
 10
0.0
 20
1.0
 30
0.0
  9
$UCSORTHOREF
  2

  9
$UCSORTHOVIEW
 70
     0
  9
$UCSORGTOP
 10
0.0
 20
0.0
 30
0.0
  9
$UCSORGBOTTOM
 10
0.0
 20
0.0
 30
0.0
  9
$UCSORGLEFT
 10
0.0
 20
0.0
 30
0.0
  9
$UCSORGRIGHT
 10
0.0
 20
0.0
 30
0.0
  9
$UCSORGFRONT
 10
0.0
 20
0.0
 30
0.0
  9
$UCSORGBACK
 10
0.0
 20
0.0
 30
0.0
  9
$PUCSBASE
  2

  9
$PUCSNAME
  2

  9
$PUCSORG
 10
0.0
 20
0.0
 30
0.0
  9
$PUCSXDIR
 10
1.0
 20
0.0
 30
0.0
  9
$PUCSYDIR
 10
0.0
 20
1.0
 30
0.0
  9
$PUCSORTHOREF
  2

  9
$PUCSORTHOVIEW
 70
     0
  9
$PUCSORGTOP
 10
0.0
 20
0.0
 30
0.0
  9
$PUCSORGBOTTOM
 10
0.0
 20
0.0
 30
0.0
  9
$PUCSORGLEFT
 10
0.0
 20
0.0
 30
0.0
  9
$PUCSORGRIGHT
 10
0.0
 20
0.0
 30
0.0
  9
$PUCSORGFRONT
 10
0.0
 20
0.0
 30
0.0
  9
$PUCSORGBACK
 10
0.0
 20
0.0
 30
0.0
  9
$USERI1
 70
     0
  9
$USERI2
 70
     0
  9
$USERI3
 70
     0
  9
$USERI4
 70
     0
  9
$USERI5
 70
     0
  9
$USERR1
 40
18.1
  9
$USERR2
 40
0.0
  9
$USERR3
 40
0.0
  9
$USERR4
 40
0.0
  9
$USERR5
 40
0.0
  9
$WORLDVIEW
 70
     1
  9
$SHADEDGE
 70
     3
  9
$SHADEDIF
 70
    70
  9
$TILEMODE
 70
     1
  9
$MAXACTVP
 70
    64
  9
$PINSBASE
 10
0.0
 20
0.0
 30
0.0
  9
$PLIMCHECK
 70
     0
  9
$PEXTMIN
 10
1.00000000000000E+20
 20
1.00000000000000E+20
 30
1.00000000000000E+20
  9
$PEXTMAX
 10
-1.00000000000000E+20
 20
-1.00000000000000E+20
 30
-1.00000000000000E+20
  9
$PLIMMIN
 10
0.0
 20
0.0
  9
$PLIMMAX
 10
12.0
 20
9.0
  9
$UNITMODE
 70
     0
  9
$VISRETAIN
 70
     1
  9
$PLINEGEN
 70
     0
  9
$PSLTSCALE
 70
     1
  9
$TREEDEPTH
 70
  3020
  9
$CMLSTYLE
  2
Standard
  9
$CMLJUST
 70
     0
  9
$CMLSCALE
 40
1.0
  9
$PROXYGRAPHICS
 70
     1
  9
$MEASUREMENT
 70
     1
  9
$CELWEIGHT
370
    -1
  9
$ENDCAPS
280
     0
  9
$JOINSTYLE
280
     0
  9
$LWDISPLAY
290
     0
  9
$INSUNITS
 70
     4
  9
$HYPERLINKBASE
  1

  9
$STYLESHEET
  1

  9
$XEDIT
290
     1
  9
$CEPSNTYPE
380
     0
  9
$PSTYLEMODE
290
     1
  9
$FINGERPRINTGUID
  2
{6E364238-9D1E-4D5D-BFA8-A2AC18D19CD2}
  9
$VERSIONGUID
  2
{FAEB1C32-E019-11D5-929B-00C0DF256EC4}
  9
$EXTNAMES
290
     1
  9
$PSVPSCALE
 40
0.0
  9
$OLESTARTUP
290
     0
  9
$SORTENTS
280
   127
  9
$INDEXCTL
280
     0
  9
$HIDETEXT
280
     1
  9
$XCLIPFRAME
290
     0
  9
$HALOGAP
280
     0
  9
$OBSCOLOR
 70
   257
  9
$OBSLTYPE
280
     0
  9
$INTERSECTIONDISPLAY
280
     0
  9
$INTERSECTIONCOLOR
 70
   257
  9
$DIMASSOC
280
     2
  9
$PROJECTNAME
  1

  0
ENDSEC
  0
SECTION
  2
CLASSES
  0
CLASS
  1
ACDBDICTIONARYWDFLT
  2
AcDbDictionaryWithDefault
  3
ObjectDBX Classes
 90
        0
 91
        4
280
     0
281
     0
  0
CLASS
  1
VISUALSTYLE
  2
AcDbVisualStyle
  3
ObjectDBX Classes
 90
     4095
 91
        4
280
     0
281
     0
  0
CLASS
  1
MATERIAL
  2
AcDbMaterial
  3
ObjectDBX Classes
 90
     1153
 91
        4
280
     0
281
     0
  0
ENDSEC
  0
SECTION
  2
TABLES
  0
TABLE
  2
VPORT
  5
8
330
0
100
AcDbSymbolTable
 70
     1
  0
VPORT
  5
29
330
8
100
AcDbSymbolTableRecord
100
AcDbViewportTableRecord
  2
*Active
 70
     0
 10
0.0
 20
0.0
 11
1.0
 21
1.0
 12
-91.25000049479794
 22
109.5998174109402
 13
0.0
 23
0.0
 14
0.5
 24
0.5
 15
0.5
 25
0.5
 16
0.0
 26
0.0
 36
1.0
 17
0.0
 27
0.0
 37
0.0
 40
231.0000000000001
 41
1.60267857142857
 42
50.0
 43
0.0
 44
0.0
 50
0.0
 51
0.0
 71
     0
 72
   100
 73
     1
 74
     3
 75
     0
 76
     0
 77
     0
 78
     0
281
     0
 65
     1
110
0.0
120
0.0
130
0.0
111
1.0
121
0.0
131
0.0
112
0.0
122
1.0
132
0.0
 79
     0
146
0.0
  0
ENDTAB
  0
TABLE
  2
LTYPE
  5
5
330
0
100
AcDbSymbolTable
 70
     8
  0
LTYPE
  5
14
330
5
100
AcDbSymbolTableRecord
100
AcDbLinetypeTableRecord
  2
ByBlock
 70
     0
  3

 72
    65
 73
     0
 40
0.0
  0
LTYPE
  5
15
330
5
100
AcDbSymbolTableRecord
100
AcDbLinetypeTableRecord
  2
ByLayer
 70
     0
  3

 72
    65
 73
     0
 40
0.0
  0
LTYPE
  5
16
330
5
100
AcDbSymbolTableRecord
100
AcDbLinetypeTableRecord
  2
Continuous
 70
     0
  3
Solid line
 72
    65
 73
     0
 40
0.0
  0
LTYPE
  5
3F
330
5
100
AcDbSymbolTableRecord
100
AcDbLinetypeTableRecord
  2
DASHED
 70
     0
  3
Dashed
 72
    65
 73
     2
 40
15.0
 49
7.0
 74
     0
 49
-8.0
 74
     0
  0
LTYPE
  5
40
330
5
100
AcDbSymbolTableRecord
100
AcDbLinetypeTableRecord
  2
DOTTED
 70
     0
  3
Dotted
 72
    65
 73
     2
 40
1.0
 49
0.0
 74
     0
 49
-1.0
 74
     0
  0
LTYPE
  5
41
330
5
100
AcDbSymbolTableRecord
100
AcDbLinetypeTableRecord
  2
DOT_CENTER
 70
     0
  3
Dot_Center
 72
    65
 73
     4
 40
14.0
 49
12.0
 74
     0
 49
-1.0
 74
     0
 49
0.0
 74
     0
 49
-1.0
 74
     0
  0
LTYPE
  5
42
330
5
100
AcDbSymbolTableRecord
100
AcDbLinetypeTableRecord
  2
LONG_DASHED
 70
     0
  3
Long_Dashed
 72
    65
 73
     2
 40
15.0
 49
10.0
 74
     0
 49
-5.0
 74
     0
  0
LTYPE
  5
43
330
5
100
AcDbSymbolTableRecord
100
AcDbLinetypeTableRecord
  2
DASH_CENTER
 70
     0
  3
Dash_Center
 72
    65
 73
     4
 40
14.0
 49
11.0
 74
     0
 49
-1.0
 74
     0
 49
1.0
 74
     0
 49
-1.0
 74
     0
  0
LTYPE
  5
44
330
5
100
AcDbSymbolTableRecord
100
AcDbLinetypeTableRecord
  2
PHANTOM
 70
     0
  3
Phantom
 72
    65
 73
     6
 40
13.0
 49
10.0
 74
     0
 49
-1.0
 74
     0
 49
0.0
 74
     0
 49
-1.0
 74
     0
 49
0.0
 74
     0
 49
-1.0
 74
     0
  0
LTYPE
  5
45
330
5
100
AcDbSymbolTableRecord
100
AcDbLinetypeTableRecord
  2
CENTER_DASH_DASH
 70
     0
  3
Center_Dash_Dash
 72
    65
 73
     6
 40
14.0
 49
9.0
 74
     0
 49
-1.0
 74
     0
 49
1.0
 74
     0
 49
-1.0
 74
     0
 49
1.0
 74
     0
 49
-1.0
 74
     0
  0
ENDTAB
  0
TABLE
  2
LAYER
  5
2
330
0
100
AcDbSymbolTable
 70
     2
  0
LAYER
  5
10
330
2
100
AcDbSymbolTableRecord
100
AcDbLayerTableRecord
  2
0
 70
     0
 62
     7
  6
Continuous
370
    -3
390
F
  0
LAYER
  5
46
330
2
100
AcDbSymbolTableRecord
100
AcDbLayerTableRecord
  2
1
 70
     0
 62
     7
  6
Continuous
370
    -3
390
F
  0
ENDTAB
  0
TABLE
  2
STYLE
  5
3
330
0
100
AcDbSymbolTable
 70
     5
  0
STYLE
  5
11
330
3
100
AcDbSymbolTableRecord
100
AcDbTextStyleTableRecord
  2
Standard
 70
     0
 40
0.0
 41
1.0
 50
0.0
 71
     0
 42
0.2
  3
txt
  4

  0
STYLE
  5
17D
330
3
100
AcDbSymbolTableRecord
100
AcDbTextStyleTableRecord
  2
CONVERTER_11
 70
     0
 40
0.0
 41
0.9
 50
0.0
 71
     0
 42
0.2
  3
txt.shx
  4

  0
STYLE
  5
184
330
3
100
AcDbSymbolTableRecord
100
AcDbTextStyleTableRecord
  2
CONVERTER_12
 70
     0
 40
0.0
 41
0.81
 50
0.0
 71
     0
 42
0.2
  3
txt.shx
  4

  0
STYLE
  5
19A
330
3
100
AcDbSymbolTableRecord
100
AcDbTextStyleTableRecord
  2
CONVERTER_13
 70
     0
 40
0.0
 41
0.72
 50
0.0
 71
     0
 42
0.2
  3
txt.shx
  4

  0
STYLE
  5
19D
330
3
100
AcDbSymbolTableRecord
100
AcDbTextStyleTableRecord
  2
CONVERTER_14
 70
     0
 40
0.0
 41
0.855
 50
0.0
 71
     0
 42
0.2
  3
txt.shx
  4

  0
ENDTAB
  0
TABLE
  2
VIEW
  5
6
330
0
100
AcDbSymbolTable
 70
     0
  0
ENDTAB
  0
TABLE
  2
UCS
  5
7
330
0
100
AcDbSymbolTable
 70
     0
  0
ENDTAB
  0
TABLE
  2
APPID
  5
9
330
0
100
AcDbSymbolTable
 70
     1
  0
APPID
  5
12
330
9
100
AcDbSymbolTableRecord
100
AcDbRegAppTableRecord
  2
ACAD
 70
     0
  0
ENDTAB
  0
TABLE
  2
DIMSTYLE
  5
A
330
0
100
AcDbSymbolTable
 70
     4
100
AcDbDimStyleTable
  0
DIMSTYLE
105
27
330
A
100
AcDbSymbolTableRecord
100
AcDbDimStyleTableRecord
  2
Standard
 70
     0
178
     0
340
11
  0
DIMSTYLE
105
20D
102
{ACAD_REACTORS
330
20E
102
}
330
A
100
AcDbSymbolTableRecord
100
AcDbDimStyleTableRecord
  2
ME10_DIM_10
 70
     0
 41
3.5
 42
0.0
 44
1.5
 73
     0
 74
     0
 77
     1
 78
     8
140
3.5
147
1.5
172
     1
173
     1
174
     1
175
     1
176
     2
177
     2
178
     3
340
17D
  0
DIMSTYLE
105
25B
102
{ACAD_REACTORS
330
25C
102
}
330
A
100
AcDbSymbolTableRecord
100
AcDbDimStyleTableRecord
  2
ME10_DIM_11
 70
     0
 41
3.5
 42
0.0
 44
1.5
 73
     0
 74
     0
 77
     1
 78
     8
140
3.5
147
1.5
172
     1
173
     1
174
     1
175
     1
176
     2
177
     2
178
     3
340
17D
  0
DIMSTYLE
105
266
102
{ACAD_REACTORS
330
267
102
}
330
A
100
AcDbSymbolTableRecord
100
AcDbDimStyleTableRecord
  2
ME10_DIM_12
 70
     0
 41
3.5
 42
0.0
 44
1.5
 73
     0
 74
     0
 77
     1
 78
     8
140
3.5
147
1.5
172
     1
173
     1
174
     1
175
     1
176
     2
177
     2
178
     3
340
17D
  0
ENDTAB
  0
TABLE
  2
BLOCK_RECORD
  5
1
330
0
100
AcDbSymbolTable
 70
    20
  0
BLOCK_RECORD
  5
1F
330
1
100
AcDbSymbolTableRecord
100
AcDbBlockTableRecord
  2
*Model_Space
340
22
  0
BLOCK_RECORD
  5
1B
330
1
100
AcDbSymbolTableRecord
100
AcDbBlockTableRecord
  2
*Paper_Space
340
1E
  0
BLOCK_RECORD
  5
23
330
1
100
AcDbSymbolTableRecord
100
AcDbBlockTableRecord
  2
*Paper_Space0
340
26
  0
BLOCK_RECORD
  5
47
330
1
100
AcDbSymbolTableRecord
100
AcDbBlockTableRecord
  2
_rahmen
340
0
102
{BLKREFS
331
4E
102
}
  0
BLOCK_RECORD
  5
4A
330
1
100
AcDbSymbolTableRecord
100
AcDbBlockTableRecord
  2
_punkt
340
0
102
{BLKREFS
331
4F
102
}
  0
BLOCK_RECORD
  5
4D
330
1
100
AcDbSymbolTableRecord
100
AcDbBlockTableRecord
  2
A4I_CS
340
0
102
{BLKREFS
331
7D
102
}
  0
BLOCK_RECORD
  5
52
330
1
100
AcDbSymbolTableRecord
100
AcDbBlockTableRecord
  2
D-QTC_2_5-TWIN-select__1
340
0
102
{BLKREFS
331
56
102
}
  0
BLOCK_RECORD
  5
55
330
1
100
AcDbSymbolTableRecord
100
AcDbBlockTableRecord
  2
AllgSicht1
340
0
102
{BLKREFS
331
7E
102
}
  0
BLOCK_RECORD
  5
59
330
1
100
AcDbSymbolTableRecord
100
AcDbBlockTableRecord
  2
D-QTC_2_5-TWIN-select__2
340
0
102
{BLKREFS
331
5D
102
}
  0
BLOCK_RECORD
  5
5C
330
1
100
AcDbSymbolTableRecord
100
AcDbBlockTableRecord
  2
Drfsicht1
340
0
102
{BLKREFS
331
7F
102
}
  0
BLOCK_RECORD
  5
60
330
1
100
AcDbSymbolTableRecord
100
AcDbBlockTableRecord
  2
D-QTC_2_5-TWIN-select__3
340
0
102
{BLKREFS
331
64
102
}
  0
BLOCK_RECORD
  5
63
330
1
100
AcDbSymbolTableRecord
100
AcDbBlockTableRecord
  2
Rckans1
340
0
102
{BLKREFS
331
80
102
}
  0
BLOCK_RECORD
  5
67
330
1
100
AcDbSymbolTableRecord
100
AcDbBlockTableRecord
  2
D-QTC_2_5-TWIN-select__4
340
0
102
{BLKREFS
331
6B
102
}
  0
BLOCK_RECORD
  5
6A
330
1
100
AcDbSymbolTableRecord
100
AcDbBlockTableRecord
  2
SA_Links1
340
0
102
{BLKREFS
331
81
102
}
  0
BLOCK_RECORD
  5
6E
330
1
100
AcDbSymbolTableRecord
100
AcDbBlockTableRecord
  2
D-QTC_2_5-TWIN-select__5
340
0
102
{BLKREFS
331
72
102
}
  0
BLOCK_RECORD
  5
71
330
1
100
AcDbSymbolTableRecord
100
AcDbBlockTableRecord
  2
SA_Rechts1
340
0
102
{BLKREFS
331
82
102
}
  0
BLOCK_RECORD
  5
75
330
1
100
AcDbSymbolTableRecord
100
AcDbBlockTableRecord
  2
D-QTC_2_5-TWIN-select__6
340
0
102
{BLKREFS
331
79
102
}
  0
BLOCK_RECORD
  5
78
330
1
100
AcDbSymbolTableRecord
100
AcDbBlockTableRecord
  2
Vordans1
340
0
102
{BLKREFS
331
83
102
}
  0
BLOCK_RECORD
  5
7C
330
1
100
AcDbSymbolTableRecord
100
AcDbBlockTableRecord
  2
1
340
0
102
{BLKREFS
331
86
102
}
  0
BLOCK_RECORD
  5
202
330
1
100
AcDbSymbolTableRecord
100
AcDbBlockTableRecord
  2
*D17
340
0
  0
BLOCK_RECORD
  5
252
330
1
100
AcDbSymbolTableRecord
100
AcDbBlockTableRecord
  2
*D18
340
0
  0
BLOCK_RECORD
  5
25D
330
1
100
AcDbSymbolTableRecord
100
AcDbBlockTableRecord
  2
*D19
340
0
  0
ENDTAB
  0
ENDSEC
  0
SECTION
  2
BLOCKS
  0
BLOCK
  5
20
330
1F
100
AcDbEntity
  8
0
100
AcDbBlockBegin
  2
*Model_Space
 70
     0
 10
0.0
 20
0.0
 30
0.0
  3
*Model_Space
  1

  0
ENDBLK
  5
21
330
1F
100
AcDbEntity
  8
0
100
AcDbBlockEnd
  0
BLOCK
  5
1C
330
1B
100
AcDbEntity
 67
     1
  8
0
100
AcDbBlockBegin
  2
*Paper_Space
 70
     0
 10
0.0
 20
0.0
 30
0.0
  3
*Paper_Space
  1

  0
ENDBLK
  5
1D
330
1B
100
AcDbEntity
 67
     1
  8
0
100
AcDbBlockEnd
  0
BLOCK
  5
24
330
23
100
AcDbEntity
  8
0
100
AcDbBlockBegin
  2
*Paper_Space0
 70
     0
 10
0.0
 20
0.0
 30
0.0
  3
*Paper_Space0
  1

  0
ENDBLK
  5
25
330
23
100
AcDbEntity
  8
0
100
AcDbBlockEnd
  0
BLOCK
  5
48
330
47
100
AcDbEntity
  8
0
100
AcDbBlockBegin
  2
_rahmen
 70
     0
 10
52.24999950520213
 20
4.5998174109402
 30
0.0
  3
_rahmen
  1

  0
LINE
  5
87
330
47
100
AcDbEntity
  8
1
  6
Continuous
 62
     6
100
AcDbLine
 10
-77.29480502154789
 20
35.09981741094032
 30
0.0
 11
52.24999950520382
 21
35.09981741094032
 31
0.0
  0
LINE
  5
88
330
47
100
AcDbEntity
  8
1
  6
Continuous
 62
     7
100
AcDbLine
 10
-59.09480502154787
 20
13.84981741094032
 30
0.0
 11
-40.89480502154797
 21
13.84981741094032
 31
0.0
  0
LINE
  5
89
330
47
100
AcDbEntity
  8
1
  6
Continuous
 62
     6
100
AcDbLine
 10
-59.09480502154787
 20
9.59981741094032
 30
0.0
 11
-77.29480502154789
 21
9.5998174109402
 31
0.0
  0
LINE
  5
8A
330
47
100
AcDbEntity
  8
1
  6
Continuous
 62
     7
100
AcDbLine
 10
-59.09480502154787
 20
13.84981741094032
 30
0.0
 11
-59.09480502154787
 21
9.59981741094032
 31
0.0
  0
LINE
  5
8B
330
47
100
AcDbEntity
  8
1
  6
Continuous
 62
     7
100
AcDbLine
 10
-40.89480502154797
 20
13.84981741094032
 30
0.0
 11
-40.89480502154797
 21
9.5998174109402
 31
0.0
  0
LINE
  5
8C
330
47
100
AcDbEntity
  8
1
  6
Continuous
 62
     7
100
AcDbLine
 10
-77.29480502154789
 20
13.8498174109402
 30
0.0
 11
-77.29480502154789
 21
9.5998174109402
 31
0.0
  0
LINE
  5
8D
330
47
100
AcDbEntity
  8
1
  6
Continuous
 62
     7
100
AcDbLine
 10
-77.29480502154789
 20
13.8498174109402
 30
0.0
 11
-59.09480502154787
 21
13.84981741094032
 31
0.0
  0
LINE
  5
8E
330
47
100
AcDbEntity
  8
1
  6
Continuous
 62
     2
100
AcDbLine
 10
-68.05815013498528
 20
33.22481741094023
 30
0.0
 11
-68.05815013498528
 21
28.22481741094023
 31
0.0
  0
LINE
  5
8F
330
47
100
AcDbEntity
  8
1
  6
Continuous
 62
     2
100
AcDbLine
 10
-68.05815013498528
 20
28.22481741094023
 30
0.0
 11
-73.05815013498528
 21
29.47481741094023
 31
0.0
  0
LINE
  5
90
330
47
100
AcDbEntity
  8
1
  6
Continuous
 62
     2
100
AcDbLine
 10
-73.05815013498528
 20
29.47481741094023
 30
0.0
 11
-73.05815013498528
 21
31.97481741094023
 31
0.0
  0
LINE
  5
91
330
47
100
AcDbEntity
  8
1
  6
Continuous
 62
     2
100
AcDbLine
 10
-73.05815013498528
 20
31.97481741094023
 30
0.0
 11
-68.05815013498528
 21
33.22481741094023
 31
0.0
  0
LINE
  5
92
330
47
100
AcDbEntity
  8
1
  6
Continuous
 62
     6
100
AcDbLine
 10
-199.7500004947961
 20
9.59981741094032
 30
0.0
 11
-234.750000494796
 21
9.59981741094032
 31
0.0
  0
LINE
  5
93
330
47
100
AcDbEntity
  8
1
  6
Continuous
 62
     6
100
AcDbLine
 10
52.24999950520382
 20
26.59981741094032
 30
0.0
 11
52.24999950520342
 21
18.09981741094032
 31
0.0
  0
LINE
  5
94
330
47
100
AcDbEntity
  8
1
  6
Continuous
 62
     6
100
AcDbLine
 10
-40.89480502154797
 20
9.5998174109402
 30
0.0
 11
-41.25000049479789
 21
9.59981741094032
 31
0.0
  0
LINE
  5
95
330
47
100
AcDbEntity
  8
1
  6
Continuous
 62
     6
100
AcDbLine
 10
-193.5500004947981
 20
9.5998174109402
 30
0.0
 11
-199.7500004947961
 21
9.59981741094032
 31
0.0
  0
LINE
  5
96
330
47
100
AcDbEntity
  8
1
  6
Continuous
 62
     7
100
AcDbLine
 10
-40.89480502154797
 20
26.59981741094032
 30
0.0
 11
-40.89480502154797
 21
13.84981741094032
 31
0.0
  0
LINE
  5
97
330
47
100
AcDbEntity
  8
1
  6
Continuous
 62
     7
100
AcDbLine
 10
-77.29480502154789
 20
26.59981741094032
 30
0.0
 11
-77.29480502154789
 21
13.8498174109402
 31
0.0
  0
LINE
  5
98
330
47
100
AcDbEntity
  8
1
  6
Continuous
 62
     6
100
AcDbLine
 10
-91.25000049479786
 20
9.59981741094032
 30
0.0
 11
-141.2500004947981
 21
9.59981741094032
 31
0.0
  0
LINE
  5
99
330
47
100
AcDbEntity
  8
1
  6
Continuous
 62
     6
100
AcDbLine
 10
-193.5500004947981
 20
9.5998174109402
 30
0.0
 11
-191.2500004947979
 21
9.59981741094032
 31
0.0
  0
LINE
  5
9A
330
47
100
AcDbEntity
  8
1
  6
Continuous
 62
     6
100
AcDbLine
 10
-40.89480502154797
 20
9.5998174109402
 30
0.0
 11
8.74999950520211
 21
9.59981741094032
 31
0.0
  0
LINE
  5
9B
330
47
100
AcDbEntity
  8
1
  6
Continuous
 62
     6
100
AcDbLine
 10
52.24999950520213
 20
9.59981741094032
 30
0.0
 11
52.24999950520342
 21
18.09981741094032
 31
0.0
  0
LINE
  5
9C
330
47
100
AcDbEntity
  8
1
  6
Continuous
 62
     2
100
AcDbLine
 10
-239.750000494797
 20
9.59981741094032
 30
0.0
 11
-239.750000494797
 21
4.5998174109402
 31
0.0
  0
LINE
  5
9D
330
47
100
AcDbEntity
  8
1
  6
Continuous
 62
     2
100
AcDbLine
 10
-234.750000494796
 20
9.59981741094032
 30
0.0
 11
-239.750000494797
 21
9.59981741094032
 31
0.0
  0
LINE
  5
9E
330
47
100
AcDbEntity
  8
1
  6
Continuous
 62
     2
100
AcDbLine
 10
-234.750000494796
 20
4.5998174109402
 30
0.0
 11
-191.2500004947979
 21
4.5998174109402
 31
0.0
  0
LINE
  5
9F
330
47
100
AcDbEntity
  8
1
  6
Continuous
 62
     2
100
AcDbLine
 10
-234.750000494796
 20
9.59981741094032
 30
0.0
 11
-234.750000494796
 21
4.5998174109402
 31
0.0
  0
LINE
  5
A0
330
47
100
AcDbEntity
  8
1
  6
Continuous
 62
     2
100
AcDbLine
 10
8.74999950520211
 20
4.5998174109402
 30
0.0
 11
-41.25000049479789
 21
4.5998174109402
 31
0.0
  0
LINE
  5
A1
330
47
100
AcDbEntity
  8
1
  6
Continuous
 62
     2
100
AcDbLine
 10
8.74999950520211
 20
4.5998174109402
 30
0.0
 11
8.74999950520211
 21
9.59981741094032
 31
0.0
  0
LINE
  5
A2
330
47
100
AcDbEntity
  8
1
  6
Continuous
 62
     2
100
AcDbLine
 10
-41.25000049479789
 20
4.5998174109402
 30
0.0
 11
-41.25000049479789
 21
9.59981741094032
 31
0.0
  0
LINE
  5
A3
330
47
100
AcDbEntity
  8
1
  6
Continuous
 62
     2
100
AcDbLine
 10
-91.25000049479786
 20
4.5998174109402
 30
0.0
 11
-41.25000049479789
 21
4.5998174109402
 31
0.0
  0
LINE
  5
A4
330
47
100
AcDbEntity
  8
1
  6
Continuous
 62
     2
100
AcDbLine
 10
-91.25000049479786
 20
4.5998174109402
 30
0.0
 11
-91.25000049479786
 21
9.59981741094032
 31
0.0
  0
LINE
  5
A5
330
47
100
AcDbEntity
  8
1
  6
Continuous
 62
     2
100
AcDbLine
 10
-141.2500004947981
 20
4.5998174109402
 30
0.0
 11
-91.25000049479786
 21
4.5998174109402
 31
0.0
  0
LINE
  5
A6
330
47
100
AcDbEntity
  8
1
  6
Continuous
 62
     2
100
AcDbLine
 10
-141.2500004947981
 20
4.5998174109402
 30
0.0
 11
-141.2500004947981
 21
9.59981741094032
 31
0.0
  0
LINE
  5
A7
330
47
100
AcDbEntity
  8
1
  6
Continuous
 62
     2
100
AcDbLine
 10
-191.2500004947979
 20
4.5998174109402
 30
0.0
 11
-141.2500004947981
 21
4.5998174109402
 31
0.0
  0
LINE
  5
A8
330
47
100
AcDbEntity
  8
1
  6
Continuous
 62
     2
100
AcDbLine
 10
-191.2500004947979
 20
4.5998174109402
 30
0.0
 11
-191.2500004947979
 21
9.59981741094032
 31
0.0
  0
LINE
  5
A9
330
47
100
AcDbEntity
  8
1
  6
Continuous
 62
     6
100
AcDbLine
 10
-234.7500004947962
 20
59.59981741094043
 30
0.0
 11
-234.750000494796
 21
9.59981741094032
 31
0.0
  0
LINE
  5
AA
330
47
100
AcDbEntity
  8
1
  6
Continuous
 62
     2
100
AcDbLine
 10
-239.750000494797
 20
59.59981741094043
 30
0.0
 11
-239.750000494797
 21
9.59981741094032
 31
0.0
  0
LINE
  5
AB
330
47
100
AcDbEntity
  8
1
  6
Continuous
 62
     2
100
AcDbLine
 10
-239.750000494797
 20
59.59981741094043
 30
0.0
 11
-234.7500004947962
 21
59.59981741094043
 31
0.0
  0
LINE
  5
AC
330
47
100
AcDbEntity
  8
1
  6
Continuous
 62
     6
100
AcDbLine
 10
-234.7500004947964
 20
109.5998174109402
 30
0.0
 11
-234.7500004947962
 21
59.59981741094043
 31
0.0
  0
LINE
  5
AD
330
47
100
AcDbEntity
  8
1
  6
Continuous
 62
     2
100
AcDbLine
 10
-239.750000494797
 20
109.5998174109402
 30
0.0
 11
-239.750000494797
 21
59.59981741094043
 31
0.0
  0
LINE
  5
AE
330
47
100
AcDbEntity
  8
1
  6
Continuous
 62
     2
100
AcDbLine
 10
-239.750000494797
 20
109.5998174109402
 30
0.0
 11
-234.7500004947964
 21
109.5998174109402
 31
0.0
  0
LINE
  5
AF
330
47
100
AcDbEntity
  8
1
  6
Continuous
 62
     6
100
AcDbLine
 10
-234.7500004947969
 20
159.5998174109403
 30
0.0
 11
-234.7500004947964
 21
109.5998174109402
 31
0.0
  0
LINE
  5
B0
330
47
100
AcDbEntity
  8
1
  6
Continuous
 62
     2
100
AcDbLine
 10
-239.750000494797
 20
159.5998174109403
 30
0.0
 11
-239.750000494797
 21
109.5998174109402
 31
0.0
  0
LINE
  5
B1
330
47
100
AcDbEntity
  8
1
  6
Continuous
 62
     2
100
AcDbLine
 10
-239.750000494797
 20
159.5998174109403
 30
0.0
 11
-234.7500004947969
 21
159.5998174109403
 31
0.0
  0
LINE
  5
B2
330
47
100
AcDbEntity
  8
1
  6
Continuous
 62
     6
100
AcDbLine
 10
-234.750000494797
 20
194.5998174109403
 30
0.0
 11
-234.7500004947969
 21
159.5998174109403
 31
0.0
  0
LINE
  5
B3
330
47
100
AcDbEntity
  8
1
  6
Continuous
 62
     2
100
AcDbLine
 10
-239.750000494797
 20
214.5998174109403
 30
0.0
 11
-239.750000494797
 21
159.5998174109403
 31
0.0
  0
LINE
  5
B4
330
47
100
AcDbEntity
  8
1
  6
Continuous
 62
     2
100
AcDbLine
 10
-239.750000494797
 20
4.5998174109402
 30
0.0
 11
-234.750000494796
 21
4.5998174109402
 31
0.0
  0
LINE
  5
B5
330
47
100
AcDbEntity
  8
1
  6
Continuous
 62
     2
100
AcDbLine
 10
-91.25000049479786
 20
214.5998174109403
 30
0.0
 11
-91.25000049479786
 21
205.391125566239
 31
0.0
  0
LINE
  5
B6
330
47
100
AcDbEntity
  8
1
  6
Continuous
 62
     2
100
AcDbLine
 10
-91.25000049479786
 20
214.5998174109403
 30
0.0
 11
-239.750000494797
 21
214.5998174109403
 31
0.0
  0
LINE
  5
B7
330
47
100
AcDbEntity
  8
1
  6
Continuous
 62
     2
100
AcDbLine
 10
57.24999950520112
 20
9.59981741094032
 30
0.0
 11
57.24999950520112
 21
59.59981741094043
 31
0.0
  0
LINE
  5
B8
330
47
100
AcDbEntity
  8
1
  6
Continuous
 62
     2
100
AcDbLine
 10
57.24999950520112
 20
159.5998174109403
 30
0.0
 11
57.24999950520112
 21
214.5998174109403
 31
0.0
  0
LINE
  5
B9
330
47
100
AcDbEntity
  8
1
  6
Continuous
 62
     6
100
AcDbLine
 10
52.24999950520132
 20
159.5998174109403
 30
0.0
 11
52.24999950520112
 21
194.5998174109403
 31
0.0
  0
LINE
  5
BA
330
47
100
AcDbEntity
  8
1
  6
Continuous
 62
     2
100
AcDbLine
 10
52.24999950520132
 20
159.5998174109403
 30
0.0
 11
57.24999950520112
 21
159.5998174109403
 31
0.0
  0
LINE
  5
BB
330
47
100
AcDbEntity
  8
1
  6
Continuous
 62
     2
100
AcDbLine
 10
57.24999950520112
 20
109.5998174109402
 30
0.0
 11
57.24999950520112
 21
159.5998174109403
 31
0.0
  0
LINE
  5
BC
330
47
100
AcDbEntity
  8
1
  6
Continuous
 62
     6
100
AcDbLine
 10
52.24999950520252
 20
109.5998174109402
 30
0.0
 11
52.24999950520132
 21
159.5998174109403
 31
0.0
  0
LINE
  5
BD
330
47
100
AcDbEntity
  8
1
  6
Continuous
 62
     2
100
AcDbLine
 10
52.24999950520252
 20
109.5998174109402
 30
0.0
 11
57.24999950520112
 21
109.5998174109402
 31
0.0
  0
LINE
  5
BE
330
47
100
AcDbEntity
  8
1
  6
Continuous
 62
     2
100
AcDbLine
 10
57.24999950520112
 20
59.59981741094043
 30
0.0
 11
57.24999950520112
 21
109.5998174109402
 31
0.0
  0
LINE
  5
BF
330
47
100
AcDbEntity
  8
1
  6
Continuous
 62
     6
100
AcDbLine
 10
52.24999950520302
 20
59.59981741094043
 30
0.0
 11
52.24999950520252
 21
109.5998174109402
 31
0.0
  0
LINE
  5
C0
330
47
100
AcDbEntity
  8
1
  6
Continuous
 62
     2
100
AcDbLine
 10
52.24999950520302
 20
59.59981741094043
 30
0.0
 11
57.24999950520112
 21
59.59981741094043
 31
0.0
  0
LINE
  5
C1
330
47
100
AcDbEntity
  8
1
  6
Continuous
 62
     6
100
AcDbLine
 10
52.24999950520112
 20
194.5998174109403
 30
0.0
 11
-234.750000494797
 21
194.5998174109403
 31
0.0
  0
LINE
  5
C2
330
47
100
AcDbEntity
  8
1
  6
Continuous
 62
     2
100
AcDbLine
 10
57.24999950520112
 20
214.5998174109403
 30
0.0
 11
-91.25000049479786
 21
214.5998174109403
 31
0.0
  0
LINE
  5
C3
330
47
100
AcDbEntity
  8
1
  6
Continuous
 62
     6
100
AcDbLine
 10
52.24999950520382
 20
26.59981741094032
 30
0.0
 11
52.24999950520302
 21
59.59981741094043
 31
0.0
  0
LINE
  5
C4
330
47
100
AcDbEntity
  8
1
  6
Continuous
 62
     2
100
AcDbLine
 10
52.24999950520213
 20
4.5998174109402
 30
0.0
 11
8.74999950520211
 21
4.5998174109402
 31
0.0
  0
LINE
  5
C5
330
47
100
AcDbEntity
  8
1
  6
Continuous
 62
     2
100
AcDbLine
 10
57.24999950520112
 20
4.5998174109402
 30
0.0
 11
52.24999950520213
 21
4.5998174109402
 31
0.0
  0
LINE
  5
C6
330
47
100
AcDbEntity
  8
1
  6
Continuous
 62
     2
100
AcDbLine
 10
57.24999950520112
 20
4.5998174109402
 30
0.0
 11
57.24999950520112
 21
9.59981741094032
 31
0.0
  0
LINE
  5
C7
330
47
100
AcDbEntity
  8
1
  6
Continuous
 62
     6
100
AcDbLine
 10
-77.29480502154789
 20
26.59981741094032
 30
0.0
 11
-40.89480502154797
 21
26.59981741094032
 31
0.0
  0
LINE
  5
C8
330
47
100
AcDbEntity
  8
1
  6
Continuous
 62
     2
100
AcDbLine
 10
52.24999950520213
 20
9.59981741094032
 30
0.0
 11
52.24999950520213
 21
4.5998174109402
 31
0.0
  0
LINE
  5
C9
330
47
100
AcDbEntity
  8
1
  6
Continuous
 62
     2
100
AcDbLine
 10
52.24999950520213
 20
9.59981741094032
 30
0.0
 11
57.24999950520112
 21
9.59981741094032
 31
0.0
  0
LINE
  5
CA
330
47
100
AcDbEntity
  8
1
  6
Continuous
 62
     6
100
AcDbLine
 10
-41.25000049479789
 20
9.59981741094032
 30
0.0
 11
-59.09480502154787
 21
9.59981741094032
 31
0.0
  0
LINE
  5
CB
330
47
100
AcDbEntity
  8
1
  6
Continuous
 62
     6
100
AcDbLine
 10
8.74999950520211
 20
9.59981741094032
 30
0.0
 11
52.24999950520213
 21
9.59981741094032
 31
0.0
  0
LINE
  5
CC
330
47
100
AcDbEntity
  8
1
  6
Continuous
 62
     6
100
AcDbLine
 10
-141.2500004947981
 20
9.59981741094032
 30
0.0
 11
-146.2948050215479
 21
9.59981741094032
 31
0.0
  0
LINE
  5
CD
330
47
100
AcDbEntity
  8
1
  6
Continuous
 62
     6
100
AcDbLine
 10
-91.25000049479786
 20
9.59981741094032
 30
0.0
 11
-77.29480502154789
 21
9.5998174109402
 31
0.0
  0
LINE
  5
CE
102
{ACAD_REACTORS
330
1B9
330
1BA
102
}
330
47
100
AcDbEntity
  8
0
  6
Continuous
 62
     2
100
AcDbLine
 10
-69.78017907940108
 20
21.67233216715243
 30
0.0
 11
-69.78017907940108
 21
22.27786745565922
 31
0.0
  0
LINE
  5
CF
102
{ACAD_REACTORS
330
1B9
330
1BA
102
}
330
47
100
AcDbEntity
  8
0
  6
Continuous
 62
     2
100
AcDbLine
 10
-69.78017907940108
 20
18.87219756052113
 30
0.0
 11
-69.78017907940108
 21
19.45404896721621
 31
0.0
  0
LINE
  5
D0
102
{ACAD_REACTORS
330
1BB
330
1BC
102
}
330
47
100
AcDbEntity
  8
0
  6
Continuous
 62
     2
100
AcDbLine
 10
-47.15069264392187
 20
19.16186162864412
 30
0.0
 11
-47.15069264392187
 21
16.89331741095663
 31
0.0
  0
LINE
  5
D1
102
{ACAD_REACTORS
330
1BB
330
1BC
102
}
330
47
100
AcDbEntity
  8
0
  6
Continuous
 62
     2
100
AcDbLine
 10
-48.53174642290946
 20
19.94712693476723
 30
0.0
 11
-45.14680090428078
 21
19.94712693476771
 31
0.0
  0
LINE
  5
D2
102
{ACAD_REACTORS
330
1BB
330
1BC
102
}
330
47
100
AcDbEntity
  8
0
  6
Continuous
 62
     2
100
AcDbLine
 10
-45.14680090428078
 20
19.16186162864412
 30
0.0
 11
-45.14680090428078
 21
19.94712693476771
 31
0.0
  0
LINE
  5
D3
102
{ACAD_REACTORS
330
1BB
330
1BC
102
}
330
47
100
AcDbEntity
  8
0
  6
Continuous
 62
     2
100
AcDbLine
 10
-45.95789994175416
 20
19.16186162864412
 30
0.0
 11
-45.14680090428078
 21
19.16186162864412
 31
0.0
  0
LINE
  5
D4
102
{ACAD_REACTORS
330
1BB
330
1BC
102
}
330
47
100
AcDbEntity
  8
0
  6
Continuous
 62
     2
100
AcDbLine
 10
-45.95789994175416
 20
16.89331741095663
 30
0.0
 11
-45.95789994175416
 21
19.16186162864412
 31
0.0
  0
LINE
  5
D5
102
{ACAD_REACTORS
330
1BB
330
1BC
102
}
330
47
100
AcDbEntity
  8
0
  6
Continuous
 62
     2
100
AcDbLine
 10
-47.15069264392187
 20
16.89331741095663
 30
0.0
 11
-45.95789994175416
 21
16.89331741095663
 31
0.0
  0
LINE
  5
D6
102
{ACAD_REACTORS
330
1B1
330
1B2
102
}
330
47
100
AcDbEntity
  8
0
  6
Continuous
 62
     2
100
AcDbLine
 10
-47.84728358198638
 20
23.30631741094211
 30
0.0
 11
-49.25000779973567
 21
23.30631741094211
 31
0.0
  0
LINE
  5
D7
102
{ACAD_REACTORS
330
1B1
330
1B2
102
}
330
47
100
AcDbEntity
  8
0
  6
Continuous
 62
     2
100
AcDbLine
 10
-47.84728358198638
 20
23.30631741094211
 30
0.0
 11
-47.24611606009458
 21
22.62649408938663
 31
0.0
  0
LINE
  5
D8
102
{ACAD_REACTORS
330
1B1
330
1B2
102
}
330
47
100
AcDbEntity
  8
0
  6
Continuous
 62
     2
100
AcDbLine
 10
-47.24611606009458
 20
22.62649408938663
 30
0.0
 11
-46.64494853820179
 21
23.30631741094211
 31
0.0
  0
LINE
  5
D9
102
{ACAD_REACTORS
330
1B1
330
1B2
102
}
330
47
100
AcDbEntity
  8
0
  6
Continuous
 62
     2
100
AcDbLine
 10
-46.54475395122108
 20
21.83336688090591
 30
0.0
 11
-45.24222432045457
 21
23.30631741094211
 31
0.0
  0
LINE
  5
DA
102
{ACAD_REACTORS
330
1B1
330
1B2
102
}
330
47
100
AcDbEntity
  8
0
  6
Continuous
 62
     2
100
AcDbLine
 10
-46.54475395122108
 20
21.83336688090591
 30
0.0
 11
-45.14680090428078
 21
20.25250788713092
 31
0.0
  0
LINE
  5
DB
102
{ACAD_REACTORS
330
1B1
330
1B2
102
}
330
47
100
AcDbEntity
  8
0
  6
Continuous
 62
     2
100
AcDbLine
 10
-46.54952512202908
 20
20.25250788713092
 30
0.0
 11
-45.14680090428078
 21
20.25250788713092
 31
0.0
  0
LINE
  5
DC
102
{ACAD_REACTORS
330
1B1
330
1B2
102
}
330
47
100
AcDbEntity
  8
0
  6
Continuous
 62
     2
100
AcDbLine
 10
-47.24611606009458
 20
21.04023967242463
 30
0.0
 11
-46.54952512202908
 21
20.25250788713092
 31
0.0
  0
LINE
  5
DD
102
{ACAD_REACTORS
330
1AF
330
1B0
102
}
330
47
100
AcDbEntity
  8
0
  6
Continuous
 62
     2
100
AcDbLine
 10
-50.70521489637827
 20
23.30631741094211
 30
0.0
 11
-49.46471048612537
 21
23.30631741094211
 31
0.0
  0
LINE
  5
DE
102
{ACAD_REACTORS
330
1AF
330
1B0
102
}
330
47
100
AcDbEntity
  8
0
  6
Continuous
 62
     2
100
AcDbLine
 10
-49.46471048612537
 20
23.30631741094211
 30
0.0
 11
-49.46471048612537
 21
20.25250788713092
 31
0.0
  0
LINE
  5
DF
102
{ACAD_REACTORS
330
1AF
330
1B0
102
}
330
47
100
AcDbEntity
  8
0
  6
Continuous
 62
     2
100
AcDbLine
 10
-50.70521489637827
 20
20.25250788713092
 30
0.0
 11
-50.70521489637827
 21
23.30631741094211
 31
0.0
  0
LINE
  5
E0
102
{ACAD_REACTORS
330
1AD
330
1AE
102
}
330
47
100
AcDbEntity
  8
0
  6
Continuous
 62
     2
100
AcDbLine
 10
-52.17352497891588
 20
18.11484122048111
 30
0.0
 11
-51.87335974172348
 21
18.88265618646781
 31
0.0
  0
LINE
  5
E1
102
{ACAD_REACTORS
330
1AD
330
1AE
102
}
330
47
100
AcDbEntity
  8
0
  6
Continuous
 62
     2
100
AcDbLine
 10
-52.65106058353669
 20
16.89331741095663
 30
0.0
 11
-52.43958053006088
 21
17.43427795517451
 31
0.0
  0
LINE
  5
E2
102
{ACAD_REACTORS
330
1AD
330
1AE
102
}
330
47
100
AcDbEntity
  8
0
  6
Continuous
 62
     2
100
AcDbLine
 10
-52.49361194685037
 20
19.94712693476771
 30
0.0
 11
-53.89156499378967
 21
16.89331741095663
 31
0.0
  0
LINE
  5
E3
102
{ACAD_REACTORS
330
1AD
330
1AE
102
}
330
47
100
AcDbEntity
  8
0
  6
Continuous
 62
     2
100
AcDbLine
 10
-49.85515448965737
 20
16.89331741095663
 30
0.0
 11
-51.09565889991129
 21
16.89331741095663
 31
0.0
  0
LINE
  5
E4
102
{ACAD_REACTORS
330
1AD
330
1AE
102
}
330
47
100
AcDbEntity
  8
0
  6
Continuous
 62
     2
100
AcDbLine
 10
-52.43958053006088
 20
17.43427795517451
 30
0.0
 11
-51.30713895338707
 21
17.43427795517451
 31
0.0
  0
LINE
  5
E5
102
{ACAD_REACTORS
330
1AB
330
1AC
102
}
330
47
100
AcDbEntity
  8
0
  6
Continuous
 62
     2
100
AcDbLine
 10
-56.04907713297189
 20
19.16186162864412
 30
0.0
 11
-55.23797809549728
 21
19.16186162864412
 31
0.0
  0
LINE
  5
E6
102
{ACAD_REACTORS
330
1AB
330
1AC
102
}
330
47
100
AcDbEntity
  8
0
  6
Continuous
 62
     2
100
AcDbLine
 10
-53.23408635585827
 20
19.94712693476771
 30
0.0
 11
-56.04907713297189
 21
19.94712693476771
 31
0.0
  0
LINE
  5
E7
102
{ACAD_REACTORS
330
1AB
330
1AC
102
}
330
47
100
AcDbEntity
  8
0
  6
Continuous
 62
     2
100
AcDbLine
 10
-53.23408635585827
 20
19.16186162864412
 30
0.0
 11
-53.23408635585827
 21
19.94712693476771
 31
0.0
  0
LINE
  5
E8
102
{ACAD_REACTORS
330
1AB
330
1AC
102
}
330
47
100
AcDbEntity
  8
0
  6
Continuous
 62
     2
100
AcDbLine
 10
-54.04518539333077
 20
19.16186162864412
 30
0.0
 11
-53.23408635585827
 21
19.16186162864412
 31
0.0
  0
LINE
  5
E9
102
{ACAD_REACTORS
330
1AB
330
1AC
102
}
330
47
100
AcDbEntity
  8
0
  6
Continuous
 62
     2
100
AcDbLine
 10
-54.04518539333077
 20
16.89331741095663
 30
0.0
 11
-54.04518539333077
 21
19.16186162864412
 31
0.0
  0
LINE
  5
EA
102
{ACAD_REACTORS
330
1A9
330
1AA
102
}
330
47
100
AcDbEntity
  8
0
  6
Continuous
 62
     2
100
AcDbLine
 10
-53.37707054923277
 20
20.25250788713092
 30
0.0
 11
-53.37707054923277
 21
21.56128339733562
 31
0.0
  0
LINE
  5
EB
102
{ACAD_REACTORS
330
1A9
330
1AA
102
}
330
47
100
AcDbEntity
  8
0
  6
Continuous
 62
     2
100
AcDbLine
 10
-54.56986325139928
 20
23.30631741094211
 30
0.0
 11
-54.56986325139928
 21
20.25250788713092
 31
0.0
  0
LINE
  5
EC
102
{ACAD_REACTORS
330
1A9
330
1AA
102
}
330
47
100
AcDbEntity
  8
0
  6
Continuous
 62
     2
100
AcDbLine
 10
-53.37707054923277
 20
23.30631741094211
 30
0.0
 11
-54.56986325139928
 21
23.30631741094211
 31
0.0
  0
LINE
  5
ED
102
{ACAD_REACTORS
330
1A9
330
1AA
102
}
330
47
100
AcDbEntity
  8
0
  6
Continuous
 62
     2
100
AcDbLine
 10
-52.13656613897877
 20
23.30631741094211
 30
0.0
 11
-52.13656613897877
 21
21.99754190073693
 31
0.0
  0
LINE
  5
EE
102
{ACAD_REACTORS
330
1A7
330
1A8
102
}
330
47
100
AcDbEntity
  8
0
  6
Continuous
 62
     2
100
AcDbLine
 10
-59.81830207181898
 20
19.94712693476771
 30
0.0
 11
-59.81830207181898
 21
16.89331741095663
 31
0.0
  0
LINE
  5
EF
102
{ACAD_REACTORS
330
1A7
330
1A8
102
}
330
47
100
AcDbEntity
  8
0
  6
Continuous
 62
     2
100
AcDbLine
 10
-58.62550936965138
 20
19.94712693476771
 30
0.0
 11
-59.81830207181898
 21
19.94712693476771
 31
0.0
  0
LINE
  5
F0
102
{ACAD_REACTORS
330
1A7
330
1A8
102
}
330
47
100
AcDbEntity
  8
0
  6
Continuous
 62
     2
100
AcDbLine
 10
-57.38500495939849
 20
16.89331741095663
 30
0.0
 11
-56.19221225723209
 21
16.89331741095663
 31
0.0
  0
LINE
  5
F1
102
{ACAD_REACTORS
330
1A7
330
1A8
102
}
330
47
100
AcDbEntity
  8
0
  6
Continuous
 62
     2
100
AcDbLine
 10
-59.81830207181898
 20
16.89331741095663
 30
0.0
 11
-58.62550936965138
 21
16.89331741095663
 31
0.0
  0
LINE
  5
F2
102
{ACAD_REACTORS
330
1B7
330
1B8
102
}
330
47
100
AcDbEntity
  8
0
  6
Continuous
 62
     2
100
AcDbLine
 10
-56.14434961825987
 20
22.12841945175742
 30
0.0
 11
-56.14434961825987
 21
22.60830380549913
 31
0.0
  0
LINE
  5
F3
102
{ACAD_REACTORS
330
1B7
330
1B8
102
}
330
47
100
AcDbEntity
  8
0
  6
Continuous
 62
     2
100
AcDbLine
 10
-54.80842179183219
 20
22.12841945175742
 30
0.0
 11
-56.14434961825987
 21
22.12841945175742
 31
0.0
  0
LINE
  5
F4
102
{ACAD_REACTORS
330
1B7
330
1B8
102
}
330
47
100
AcDbEntity
  8
0
  6
Continuous
 62
     2
100
AcDbLine
 10
-54.80842179183219
 20
21.43040584631513
 30
0.0
 11
-54.80842179183219
 21
22.12841945175742
 31
0.0
  0
LINE
  5
F5
102
{ACAD_REACTORS
330
1B7
330
1B8
102
}
330
47
100
AcDbEntity
  8
0
  6
Continuous
 62
     2
100
AcDbLine
 10
-56.14434961825987
 20
21.43040584631513
 30
0.0
 11
-54.80842179183219
 21
21.43040584631513
 31
0.0
  0
LINE
  5
F6
102
{ACAD_REACTORS
330
1A5
330
1A6
102
}
330
47
100
AcDbEntity
  8
0
  6
Continuous
 62
     2
100
AcDbLine
 10
-59.62730430858679
 20
23.30631741094211
 30
0.0
 11
-59.62730430858679
 21
20.25250788713092
 31
0.0
  0
LINE
  5
F7
102
{ACAD_REACTORS
330
1A5
330
1A6
102
}
330
47
100
AcDbEntity
  8
0
  6
Continuous
 62
     2
100
AcDbLine
 10
-59.62730430858679
 20
20.25250788713092
 30
0.0
 11
-60.82009701075319
 21
20.25250788713092
 31
0.0
  0
LINE
  5
F8
102
{ACAD_REACTORS
330
1A5
330
1A6
102
}
330
47
100
AcDbEntity
  8
0
  6
Continuous
 62
     2
100
AcDbLine
 10
-60.82009701075319
 20
20.25250788713092
 30
0.0
 11
-60.82009701075319
 21
21.38677999597473
 31
0.0
  0
LINE
  5
F9
102
{ACAD_REACTORS
330
1A5
330
1A6
102
}
330
47
100
AcDbEntity
  8
0
  6
Continuous
 62
     2
100
AcDbLine
 10
-61.86975458866067
 20
20.25250788713092
 30
0.0
 11
-63.06254729082727
 21
20.25250788713092
 31
0.0
  0
LINE
  5
FA
102
{ACAD_REACTORS
330
1A5
330
1A6
102
}
330
47
100
AcDbEntity
  8
0
  6
Continuous
 62
     2
100
AcDbLine
 10
-63.06254729082727
 20
23.30631741094211
 30
0.0
 11
-61.86975458866067
 21
23.30631741094211
 31
0.0
  0
LINE
  5
FB
102
{ACAD_REACTORS
330
1A5
330
1A6
102
}
330
47
100
AcDbEntity
  8
0
  6
Continuous
 62
     2
100
AcDbLine
 10
-61.86975458866067
 20
23.30631741094211
 30
0.0
 11
-61.86975458866067
 21
22.23748407760752
 31
0.0
  0
LINE
  5
FC
102
{ACAD_REACTORS
330
1A5
330
1A6
102
}
330
47
100
AcDbEntity
  8
0
  6
Continuous
 62
     2
100
AcDbLine
 10
-61.86975458866067
 20
22.23748407760752
 30
0.0
 11
-60.82009701075319
 21
22.23748407760752
 31
0.0
  0
LINE
  5
FD
102
{ACAD_REACTORS
330
1B3
330
1B4
102
}
330
47
100
AcDbEntity
  8
0
  6
Continuous
 62
     2
100
AcDbLine
 10
-65.01872732238087
 20
22.64321156550201
 30
0.0
 11
-64.70143226083897
 21
22.64321156550201
 31
0.0
  0
LINE
  5
FE
102
{ACAD_REACTORS
330
1B3
330
1B4
102
}
330
47
100
AcDbEntity
  8
0
  6
Continuous
 62
     2
100
AcDbLine
 10
-65.01872732238087
 20
21.93748391615981
 30
0.0
 11
-64.70143226083897
 21
21.93748391615981
 31
0.0
  0
LINE
  5
FF
102
{ACAD_REACTORS
330
1B3
330
1B4
102
}
330
47
100
AcDbEntity
  8
0
  6
Continuous
 62
     2
100
AcDbLine
 10
-66.25923173263499
 20
23.30631741094211
 30
0.0
 11
-66.25923173263499
 21
20.25250788713092
 31
0.0
  0
LINE
  5
100
102
{ACAD_REACTORS
330
1B3
330
1B4
102
}
330
47
100
AcDbEntity
  8
0
  6
Continuous
 62
     2
100
AcDbLine
 10
-66.25923173263499
 20
23.30631741094211
 30
0.0
 11
-64.25995973460059
 21
23.30631741094211
 31
0.0
  0
LINE
  5
101
102
{ACAD_REACTORS
330
1B3
330
1B4
102
}
330
47
100
AcDbEntity
  8
0
  6
Continuous
 62
     2
100
AcDbLine
 10
-65.01872732238087
 20
21.19558612827473
 30
0.0
 11
-64.25995973460059
 21
21.19558612827473
 31
0.0
  0
LINE
  5
102
102
{ACAD_REACTORS
330
1B9
330
1BA
102
}
330
47
100
AcDbEntity
  8
0
  6
Continuous
 62
     2
100
AcDbLine
 10
-72.35572776593168
 20
22.27804493230732
 30
0.0
 11
-72.35572776593168
 21
17.92158988959022
 31
0.0
  0
LINE
  5
103
102
{ACAD_REACTORS
330
1B9
330
1BA
102
}
330
47
100
AcDbEntity
  8
0
  6
Continuous
 62
     2
100
AcDbLine
 10
-72.04001084285599
 20
22.59376185538352
 30
0.0
 11
-70.56417758184637
 21
22.59376185538352
 31
0.0
  0
LINE
  5
104
102
{ACAD_REACTORS
330
1B9
330
1BA
102
}
330
47
100
AcDbEntity
  8
0
  6
Continuous
 62
     2
100
AcDbLine
 10
-70.24846065876977
 20
21.67402031324681
 30
0.0
 11
-70.24846065876977
 21
22.27804493230732
 31
0.0
  0
LINE
  5
105
102
{ACAD_REACTORS
330
1B9
330
1BA
102
}
330
47
100
AcDbEntity
  8
0
  6
Continuous
 62
     2
100
AcDbLine
 10
-70.24846065876977
 20
17.92158988959022
 30
0.0
 11
-70.24846065876977
 21
19.45236082112183
 31
0.0
  0
LINE
  5
106
102
{ACAD_REACTORS
330
1B9
330
1BA
102
}
330
47
100
AcDbEntity
  8
0
  6
Continuous
 62
     2
100
AcDbLine
 10
-67.16059342888568
 20
16.89331741095663
 30
0.0
 11
-72.63390551960248
 21
16.89331741095663
 31
0.0
  0
LINE
  5
107
102
{ACAD_REACTORS
330
1B9
330
1BA
102
}
330
47
100
AcDbEntity
  8
0
  6
Continuous
 62
     2
100
AcDbLine
 10
-66.73634881350179
 20
22.88207279554013
 30
0.0
 11
-66.73634881350179
 21
17.31756202633991
 31
0.0
  0
LINE
  5
108
102
{ACAD_REACTORS
330
1B9
330
1BA
102
}
330
47
100
AcDbEntity
  8
0
  6
Continuous
 62
     2
100
AcDbLine
 10
-72.63390551960248
 20
23.30631741092392
 30
0.0
 11
-67.16059342888568
 21
23.30631741092392
 31
0.0
  0
LINE
  5
109
102
{ACAD_REACTORS
330
1B9
330
1BA
102
}
330
47
100
AcDbEntity
  8
0
  6
Continuous
 62
     2
100
AcDbLine
 10
-73.05815013498528
 20
22.88207279554013
 30
0.0
 11
-73.05815013498528
 21
17.31756202633991
 31
0.0
  0
LINE
  5
10A
102
{ACAD_REACTORS
330
1B9
330
1BA
102
}
330
47
100
AcDbEntity
  8
0
  6
Continuous
 62
     2
100
AcDbLine
 10
-70.56417758184637
 20
17.60587296651352
 30
0.0
 11
-72.04001084285599
 21
17.60587296651352
 31
0.0
  0
LINE
  5
10B
102
{ACAD_REACTORS
330
1B3
330
1B4
102
}
330
47
100
AcDbEntity
  8
0
  6
Continuous
 62
     2
100
AcDbLine
 10
-65.01872732238087
 20
20.25250788713092
 30
0.0
 11
-65.01872732238087
 21
21.19558612827473
 31
0.0
  0
LINE
  5
10C
102
{ACAD_REACTORS
330
1B3
330
1B4
102
}
330
47
100
AcDbEntity
  8
0
  6
Continuous
 62
     2
100
AcDbLine
 10
-66.25923173263499
 20
20.25250788713092
 30
0.0
 11
-65.01872732238087
 21
20.25250788713092
 31
0.0
  0
LINE
  5
10D
102
{ACAD_REACTORS
330
1B3
330
1B4
102
}
330
47
100
AcDbEntity
  8
0
  6
Continuous
 62
     2
100
AcDbLine
 10
-65.01872732238087
 20
21.93748391615981
 30
0.0
 11
-65.01872732238087
 21
22.64321156550201
 31
0.0
  0
LINE
  5
10E
102
{ACAD_REACTORS
330
1A5
330
1A6
102
}
330
47
100
AcDbEntity
  8
0
  6
Continuous
 62
     2
100
AcDbLine
 10
-63.06254729082727
 20
23.30631741094211
 30
0.0
 11
-63.06254729082727
 21
20.25250788713092
 31
0.0
  0
LINE
  5
10F
102
{ACAD_REACTORS
330
1A5
330
1A6
102
}
330
47
100
AcDbEntity
  8
0
  6
Continuous
 62
     2
100
AcDbLine
 10
-61.86975458866067
 20
21.38677999597473
 30
0.0
 11
-61.86975458866067
 21
20.25250788713092
 31
0.0
  0
LINE
  5
110
102
{ACAD_REACTORS
330
1A5
330
1A6
102
}
330
47
100
AcDbEntity
  8
0
  6
Continuous
 62
     2
100
AcDbLine
 10
-60.82009701075319
 20
21.38677999597473
 30
0.0
 11
-61.86975458866067
 21
21.38677999597473
 31
0.0
  0
LINE
  5
111
102
{ACAD_REACTORS
330
1A5
330
1A6
102
}
330
47
100
AcDbEntity
  8
0
  6
Continuous
 62
     2
100
AcDbLine
 10
-60.82009701075319
 20
23.30631741094211
 30
0.0
 11
-59.62730430858679
 21
23.30631741094211
 31
0.0
  0
LINE
  5
112
102
{ACAD_REACTORS
330
1A5
330
1A6
102
}
330
47
100
AcDbEntity
  8
0
  6
Continuous
 62
     2
100
AcDbLine
 10
-60.82009701075319
 20
22.23748407760752
 30
0.0
 11
-60.82009701075319
 21
23.30631741094211
 31
0.0
  0
LINE
  5
113
102
{ACAD_REACTORS
330
1B7
330
1B8
102
}
330
47
100
AcDbEntity
  8
0
  6
Continuous
 62
     2
100
AcDbLine
 10
-54.80842179183219
 20
22.60830380549913
 30
0.0
 11
-54.80842179183219
 21
23.30631741094211
 31
0.0
  0
LINE
  5
114
102
{ACAD_REACTORS
330
1B7
330
1B8
102
}
330
47
100
AcDbEntity
  8
0
  6
Continuous
 62
     2
100
AcDbLine
 10
-57.95874151561318
 20
23.30631741094211
 30
0.0
 11
-54.80842179183219
 21
23.30631741094211
 31
0.0
  0
LINE
  5
115
102
{ACAD_REACTORS
330
1B7
330
1B8
102
}
330
47
100
AcDbEntity
  8
0
  6
Continuous
 62
     2
100
AcDbLine
 10
-57.95874151561318
 20
20.25250788713092
 30
0.0
 11
-54.80842179183219
 21
20.25250788713092
 31
0.0
  0
LINE
  5
116
102
{ACAD_REACTORS
330
1B7
330
1B8
102
}
330
47
100
AcDbEntity
  8
0
  6
Continuous
 62
     2
100
AcDbLine
 10
-54.80842179183219
 20
20.25250788713092
 30
0.0
 11
-54.80842179183219
 21
20.95052149257342
 31
0.0
  0
LINE
  5
117
102
{ACAD_REACTORS
330
1B7
330
1B8
102
}
330
47
100
AcDbEntity
  8
0
  6
Continuous
 62
     2
100
AcDbLine
 10
-54.80842179183219
 20
20.95052149257342
 30
0.0
 11
-56.14434961825987
 21
20.95052149257342
 31
0.0
  0
LINE
  5
118
102
{ACAD_REACTORS
330
1B7
330
1B8
102
}
330
47
100
AcDbEntity
  8
0
  6
Continuous
 62
     2
100
AcDbLine
 10
-56.14434961825987
 20
20.95052149257342
 30
0.0
 11
-56.14434961825987
 21
21.43040584631513
 31
0.0
  0
LINE
  5
119
102
{ACAD_REACTORS
330
1B7
330
1B8
102
}
330
47
100
AcDbEntity
  8
0
  6
Continuous
 62
     2
100
AcDbLine
 10
-56.14434961825987
 20
22.60830380549913
 30
0.0
 11
-54.80842179183219
 21
22.60830380549913
 31
0.0
  0
LINE
  5
11A
102
{ACAD_REACTORS
330
1A7
330
1A8
102
}
330
47
100
AcDbEntity
  8
0
  6
Continuous
 62
     2
100
AcDbLine
 10
-58.62550936965138
 20
16.89331741095663
 30
0.0
 11
-58.62550936965138
 21
18.20209292116121
 31
0.0
  0
LINE
  5
11B
102
{ACAD_REACTORS
330
1A7
330
1A8
102
}
330
47
100
AcDbEntity
  8
0
  6
Continuous
 62
     2
100
AcDbLine
 10
-58.62550936965138
 20
18.20209292116121
 30
0.0
 11
-57.38500495939849
 21
16.89331741095663
 31
0.0
  0
LINE
  5
11C
102
{ACAD_REACTORS
330
1A7
330
1A8
102
}
330
47
100
AcDbEntity
  8
0
  6
Continuous
 62
     2
100
AcDbLine
 10
-56.19221225723209
 20
16.89331741095663
 30
0.0
 11
-56.19221225723209
 21
19.94712693476771
 31
0.0
  0
LINE
  5
11D
102
{ACAD_REACTORS
330
1A7
330
1A8
102
}
330
47
100
AcDbEntity
  8
0
  6
Continuous
 62
     2
100
AcDbLine
 10
-56.19221225723209
 20
19.94712693476771
 30
0.0
 11
-57.38500495939849
 21
19.94712693476771
 31
0.0
  0
LINE
  5
11E
102
{ACAD_REACTORS
330
1A7
330
1A8
102
}
330
47
100
AcDbEntity
  8
0
  6
Continuous
 62
     2
100
AcDbLine
 10
-57.38500495939849
 20
19.94712693476771
 30
0.0
 11
-57.38500495939849
 21
18.63835142456262
 31
0.0
  0
LINE
  5
11F
102
{ACAD_REACTORS
330
1A7
330
1A8
102
}
330
47
100
AcDbEntity
  8
0
  6
Continuous
 62
     2
100
AcDbLine
 10
-57.38500495939849
 20
18.63835142456262
 30
0.0
 11
-58.62550936965138
 21
19.94712693476771
 31
0.0
  0
LINE
  5
120
102
{ACAD_REACTORS
330
1A9
330
1AA
102
}
330
47
100
AcDbEntity
  8
0
  6
Continuous
 62
     2
100
AcDbLine
 10
-53.37707054923277
 20
21.56128339733562
 30
0.0
 11
-52.13656613897877
 21
20.25250788713092
 31
0.0
  0
LINE
  5
121
102
{ACAD_REACTORS
330
1A9
330
1AA
102
}
330
47
100
AcDbEntity
  8
0
  6
Continuous
 62
     2
100
AcDbLine
 10
-52.13656613897877
 20
20.25250788713092
 30
0.0
 11
-50.94377343681217
 21
20.25250788713092
 31
0.0
  0
LINE
  5
122
102
{ACAD_REACTORS
330
1A9
330
1AA
102
}
330
47
100
AcDbEntity
  8
0
  6
Continuous
 62
     2
100
AcDbLine
 10
-50.94377343681217
 20
20.25250788713092
 30
0.0
 11
-50.94377343681217
 21
23.30631741094211
 31
0.0
  0
LINE
  5
123
102
{ACAD_REACTORS
330
1A9
330
1AA
102
}
330
47
100
AcDbEntity
  8
0
  6
Continuous
 62
     2
100
AcDbLine
 10
-50.94377343681217
 20
23.30631741094211
 30
0.0
 11
-52.13656613897877
 21
23.30631741094211
 31
0.0
  0
LINE
  5
124
102
{ACAD_REACTORS
330
1A9
330
1AA
102
}
330
47
100
AcDbEntity
  8
0
  6
Continuous
 62
     2
100
AcDbLine
 10
-52.13656613897877
 20
21.99754190073693
 30
0.0
 11
-53.37707054923277
 21
23.30631741094211
 31
0.0
  0
LINE
  5
125
102
{ACAD_REACTORS
330
1A9
330
1AA
102
}
330
47
100
AcDbEntity
  8
0
  6
Continuous
 62
     2
100
AcDbLine
 10
-54.56986325139928
 20
20.25250788713092
 30
0.0
 11
-53.37707054923277
 21
20.25250788713092
 31
0.0
  0
LINE
  5
126
102
{ACAD_REACTORS
330
1AB
330
1AC
102
}
330
47
100
AcDbEntity
  8
0
  6
Continuous
 62
     2
100
AcDbLine
 10
-56.04907713297189
 20
19.94712693476771
 30
0.0
 11
-56.04907713297189
 21
19.16186162864412
 31
0.0
  0
LINE
  5
127
102
{ACAD_REACTORS
330
1AB
330
1AC
102
}
330
47
100
AcDbEntity
  8
0
  6
Continuous
 62
     2
100
AcDbLine
 10
-55.23797809549728
 20
19.16186162864412
 30
0.0
 11
-55.23797809549728
 21
16.89331741095663
 31
0.0
  0
LINE
  5
128
102
{ACAD_REACTORS
330
1AB
330
1AC
102
}
330
47
100
AcDbEntity
  8
0
  6
Continuous
 62
     2
100
AcDbLine
 10
-55.23797809549728
 20
16.89331741095663
 30
0.0
 11
-54.04518539333077
 21
16.89331741095663
 31
0.0
  0
LINE
  5
129
102
{ACAD_REACTORS
330
1AD
330
1AE
102
}
330
47
100
AcDbEntity
  8
0
  6
Continuous
 62
     2
100
AcDbLine
 10
-51.09565889991129
 20
16.89331741095663
 30
0.0
 11
-51.30713895338707
 21
17.43427795517451
 31
0.0
  0
LINE
  5
12A
102
{ACAD_REACTORS
330
1AD
330
1AE
102
}
330
47
100
AcDbEntity
  8
0
  6
Continuous
 62
     2
100
AcDbLine
 10
-51.25310753659767
 20
19.94712693476771
 30
0.0
 11
-49.85515448965737
 21
16.89331741095663
 31
0.0
  0
LINE
  5
12B
102
{ACAD_REACTORS
330
1AD
330
1AE
102
}
330
47
100
AcDbEntity
  8
0
  6
Continuous
 62
     2
100
AcDbLine
 10
-52.49361194685037
 20
19.94712693476771
 30
0.0
 11
-51.25310753659767
 21
19.94712693476771
 31
0.0
  0
LINE
  5
12C
102
{ACAD_REACTORS
330
1AD
330
1AE
102
}
330
47
100
AcDbEntity
  8
0
  6
Continuous
 62
     2
100
AcDbLine
 10
-53.89156499378967
 20
16.89331741095663
 30
0.0
 11
-52.65106058353669
 21
16.89331741095663
 31
0.0
  0
LINE
  5
12D
102
{ACAD_REACTORS
330
1AD
330
1AE
102
}
330
47
100
AcDbEntity
  8
0
  6
Continuous
 62
     2
100
AcDbLine
 10
-52.17352497891588
 20
18.11484122048111
 30
0.0
 11
-51.57319450453338
 21
18.11484122048111
 31
0.0
  0
LINE
  5
12E
102
{ACAD_REACTORS
330
1AD
330
1AE
102
}
330
47
100
AcDbEntity
  8
0
  6
Continuous
 62
     2
100
AcDbLine
 10
-51.57319450453338
 20
18.11484122048111
 30
0.0
 11
-51.87335974172348
 21
18.88265618646781
 31
0.0
  0
LINE
  5
12F
102
{ACAD_REACTORS
330
1AF
330
1B0
102
}
330
47
100
AcDbEntity
  8
0
  6
Continuous
 62
     2
100
AcDbLine
 10
-49.46471048612537
 20
20.25250788713092
 30
0.0
 11
-50.70521489637827
 21
20.25250788713092
 31
0.0
  0
LINE
  5
130
102
{ACAD_REACTORS
330
1B1
330
1B2
102
}
330
47
100
AcDbEntity
  8
0
  6
Continuous
 62
     2
100
AcDbLine
 10
-47.94270699816028
 20
20.25250788713092
 30
0.0
 11
-49.34543121590849
 21
20.25250788713092
 31
0.0
  0
LINE
  5
131
102
{ACAD_REACTORS
330
1B1
330
1B2
102
}
330
47
100
AcDbEntity
  8
0
  6
Continuous
 62
     2
100
AcDbLine
 10
-47.94270699816028
 20
20.25250788713092
 30
0.0
 11
-47.24611606009458
 21
21.04023967242463
 31
0.0
  0
LINE
  5
132
102
{ACAD_REACTORS
330
1B1
330
1B2
102
}
330
47
100
AcDbEntity
  8
0
  6
Continuous
 62
     2
100
AcDbLine
 10
-46.64494853820179
 20
23.30631741094211
 30
0.0
 11
-45.24222432045457
 21
23.30631741094211
 31
0.0
  0
LINE
  5
133
102
{ACAD_REACTORS
330
1B1
330
1B2
102
}
330
47
100
AcDbEntity
  8
0
  6
Continuous
 62
     2
100
AcDbLine
 10
-49.25000779973567
 20
23.30631741094211
 30
0.0
 11
-47.94747816896819
 21
21.83336688090591
 31
0.0
  0
LINE
  5
134
102
{ACAD_REACTORS
330
1B1
330
1B2
102
}
330
47
100
AcDbEntity
  8
0
  6
Continuous
 62
     2
100
AcDbLine
 10
-49.34543121590849
 20
20.25250788713092
 30
0.0
 11
-47.94747816896819
 21
21.83336688090591
 31
0.0
  0
LINE
  5
135
102
{ACAD_REACTORS
330
1BB
330
1BC
102
}
330
47
100
AcDbEntity
  8
0
  6
Continuous
 62
     2
100
AcDbLine
 10
-47.48467460052856
 20
17.94033781912023
 30
0.0
 11
-47.48467460052856
 21
17.06782081231691
 31
0.0
  0
LINE
  5
136
102
{ACAD_REACTORS
330
1BB
330
1BC
102
}
330
47
100
AcDbEntity
  8
0
  6
Continuous
 62
     2
100
AcDbLine
 10
-48.25433194348997
 20
19.16186162864412
 30
0.0
 11
-47.15069264392187
 21
19.16186162864412
 31
0.0
  0
LINE
  5
137
102
{ACAD_REACTORS
330
1BD
330
1BE
102
}
330
47
100
AcDbEntity
  8
0
  6
Continuous
 62
     2
100
AcDbLine
 10
-63.58737607978048
 20
17.94033781912071
 30
0.0
 11
-63.58737607978048
 21
17.06782081231751
 31
0.0
  0
LINE
  5
138
102
{ACAD_REACTORS
330
1BD
330
1BE
102
}
330
47
100
AcDbEntity
  8
0
  6
Continuous
 62
     2
100
AcDbLine
 10
-63.58737607978048
 20
18.90010652660362
 30
0.0
 11
-63.58737607978048
 21
19.77262353340691
 31
0.0
  0
LINE
  5
139
330
47
100
AcDbEntity
  8
1
  6
Continuous
 62
     7
100
AcDbLine
 10
52.24999950520342
 20
18.09981741094032
 30
0.0
 11
-40.89480502154797
 21
18.09981741094032
 31
0.0
  0
LINE
  5
13A
330
47
100
AcDbEntity
  8
1
  6
Continuous
 62
     6
100
AcDbLine
 10
-146.2948050215479
 20
9.59981741094032
 30
0.0
 11
-191.2500004947979
 21
9.59981741094032
 31
0.0
  0
LINE
  5
13B
330
47
100
AcDbEntity
  8
1
  6
Continuous
 62
     7
100
AcDbLine
 10
43.33159122352461
 20
35.09981741094032
 30
0.0
 11
43.33159122352461
 21
26.59981741094032
 31
0.0
  0
LINE
  5
13C
330
47
100
AcDbEntity
  8
1
  6
Continuous
 62
     7
100
AcDbLine
 10
16.83159122352501
 20
35.09981741094032
 30
0.0
 11
16.83159122352501
 21
26.59981741094032
 31
0.0
  0
LINE
  5
13D
330
47
100
AcDbEntity
  8
1
  6
Continuous
 62
     7
100
AcDbLine
 10
-40.89480502154797
 20
26.59981741094032
 30
0.0
 11
-40.89480502154797
 21
35.09981741094032
 31
0.0
  0
LINE
  5
13E
330
47
100
AcDbEntity
  8
1
  6
Continuous
 62
     7
100
AcDbLine
 10
-77.29480502154789
 20
26.59981741094032
 30
0.0
 11
-77.29480502154789
 21
35.09981741094032
 31
0.0
  0
LINE
  5
13F
330
47
100
AcDbEntity
  8
1
  6
Continuous
 62
     6
100
AcDbLine
 10
-40.89480502154797
 20
26.59981741094032
 30
0.0
 11
52.24999950520382
 21
26.59981741094032
 31
0.0
  0
LINE
  5
140
330
47
100
AcDbEntity
  8
1
  6
Continuous
 62
     7
100
AcDbLine
 10
-12.99480502154788
 20
18.09981741094023
 30
0.0
 11
-12.99480502154788
 21
26.59981741094032
 31
0.0
  0
LINE
  5
141
330
47
100
AcDbEntity
  8
1
  6
PHANTOM
 62
     2
100
AcDbLine
 10
-61.80815013498528
 20
30.72481741094023
 30
0.0
 11
-67.30815013498528
 21
30.72481741094023
 31
0.0
  0
LINE
  5
142
330
47
100
AcDbEntity
  8
1
  6
PHANTOM
 62
     2
100
AcDbLine
 10
-64.55815013498528
 20
33.47481741094023
 30
0.0
 11
-64.55815013498528
 21
27.97481741094023
 31
0.0
  0
LINE
  5
143
330
47
100
AcDbEntity
  8
1
  6
DOT_CENTER
 62
     2
100
AcDbLine
 10
-73.30815013498528
 20
30.72481741094023
 30
0.0
 11
-67.80815013498528
 21
30.72481741094023
 31
0.0
  0
ARC
  5
144
102
{ACAD_REACTORS
330
1BD
330
1BE
102
}
330
47
100
AcDbEntity
  8
0
  6
Continuous
 62
     2
100
AcDbCircle
 10
-64.92330399689828
 20
15.10754122760602
 30
0.0
 40
4.852596863498064
100
AcDbArc
 50
74.02000874164737
 51
84.84185523037506
  0
ARC
  5
145
102
{ACAD_REACTORS
330
1BD
330
1BE
102
}
330
47
100
AcDbEntity
  8
0
  6
Continuous
 62
     2
100
AcDbCircle
 10
-64.34726338814457
 20
18.26330158349032
 30
0.0
 40
0.9059297849853194
100
AcDbArc
 50
71.55192388185341
 51
113.372277888129
  0
ARC
  5
146
102
{ACAD_REACTORS
330
1BD
330
1BE
102
}
330
47
100
AcDbEntity
  8
0
  6
Continuous
 62
     2
100
AcDbCircle
 10
-64.50370342084659
 20
18.21515074352342
 30
0.0
 40
0.5115800601948034
100
AcDbArc
 50
208.5214732576956
 51
246.6277221118272
  0
ARC
  5
147
102
{ACAD_REACTORS
330
1BD
330
1BE
102
}
330
47
100
AcDbEntity
  8
0
  6
Continuous
 62
     2
100
AcDbCircle
 10
-64.34726338814457
 20
18.57714276223342
 30
0.0
 40
0.9059297849849192
100
AcDbArc
 50
246.627722111871
 51
288.4480761181586
  0
ARC
  5
148
102
{ACAD_REACTORS
330
1BD
330
1BE
102
}
330
47
100
AcDbEntity
  8
0
  6
Continuous
 62
     2
100
AcDbCircle
 10
-64.76543112180536
 20
19.83068853827061
 30
0.0
 40
2.227384008972737
100
AcDbArc
 50
288.4480761181328
 51
301.9309089499592
  0
ARC
  5
149
102
{ACAD_REACTORS
330
1B9
330
1BA
102
}
330
47
100
AcDbEntity
  8
0
  6
Continuous
 62
     2
100
AcDbCircle
 10
-69.99050485441217
 20
20.56319056718462
 30
0.0
 40
0.9118481501444557
100
AcDbArc
 50
295.3740086781766
 51
64.62599132180766
  0
ARC
  5
14A
102
{ACAD_REACTORS
330
1B9
330
1BA
102
}
330
47
100
AcDbEntity
  8
0
  6
Continuous
 62
     2
100
AcDbCircle
 10
-69.46446215632429
 20
22.27786745565922
 30
0.0
 40
0.3157169230760746
100
AcDbArc
 50
90.18896704254594
 51
180.0
  0
ARC
  5
14B
102
{ACAD_REACTORS
330
1BB
330
1BC
102
}
330
47
100
AcDbEntity
  8
0
  6
Continuous
 62
     2
100
AcDbCircle
 10
-48.25433194348997
 20
18.20733862181803
 30
0.0
 40
0.9545230068260899
100
AcDbArc
 50
90.0
 51
109.3371432194321
  0
ARC
  5
14C
102
{ACAD_REACTORS
330
1BB
330
1BC
102
}
330
47
100
AcDbEntity
  8
0
  6
Continuous
 62
     2
100
AcDbCircle
 10
-48.02364468351229
 20
18.42022217286191
 30
0.0
 40
0.9410597353348895
100
AcDbArc
 50
151.4785267423618
 51
208.5214732576697
  0
ARC
  5
14D
102
{ACAD_REACTORS
330
1BB
330
1BC
102
}
330
47
100
AcDbEntity
  8
0
  6
Continuous
 62
     2
100
AcDbCircle
 10
-48.24456190889057
 20
18.57714276223342
 30
0.0
 40
0.9059297849852829
100
AcDbArc
 50
246.6277221118178
 51
288.4480761180808
  0
ARC
  5
14E
102
{ACAD_REACTORS
330
1BB
330
1BC
102
}
330
47
100
AcDbEntity
  8
0
  6
Continuous
 62
     2
100
AcDbCircle
 10
-48.66272964255248
 20
19.83068853827001
 30
0.0
 40
2.227384008972744
100
AcDbArc
 50
288.4480761181333
 51
301.9309089499399
  0
ARC
  5
14F
102
{ACAD_REACTORS
330
1BB
330
1BC
102
}
330
47
100
AcDbEntity
  8
0
  6
Continuous
 62
     2
100
AcDbCircle
 10
-48.82060251764528
 20
21.73290311811832
 30
0.0
 40
4.852596863498824
100
AcDbArc
 50
275.1581447696362
 51
285.9799912583387
  0
ARC
  5
150
102
{ACAD_REACTORS
330
1BB
330
1BC
102
}
330
47
100
AcDbEntity
  8
0
  6
Continuous
 62
     2
100
AcDbCircle
 10
-48.53174642290946
 20
18.53301253489673
 30
0.0
 40
1.639695123940456
100
AcDbArc
 50
195.0618917771013
 51
275.158144769676
  0
ARC
  5
151
102
{ACAD_REACTORS
330
1B3
330
1B4
102
}
330
47
100
AcDbEntity
  8
0
  6
Continuous
 62
     2
100
AcDbCircle
 10
-64.25995973460059
 20
22.25095176960843
 30
0.0
 40
1.055365641333701
100
AcDbArc
 50
270.0
 51
90.0
  0
ARC
  5
152
102
{ACAD_REACTORS
330
1B9
330
1BA
102
}
330
47
100
AcDbEntity
  8
0
  6
Continuous
 62
     2
100
AcDbCircle
 10
-72.04001084285599
 20
17.92158988959022
 30
0.0
 40
0.3157169230756836
100
AcDbArc
 50
180.0
 51
270.0
  0
ARC
  5
153
102
{ACAD_REACTORS
330
1B9
330
1BA
102
}
330
47
100
AcDbEntity
  8
0
  6
Continuous
 62
     2
100
AcDbCircle
 10
-70.56417758184637
 20
22.27804493230732
 30
0.0
 40
0.315716923076593
100
AcDbArc
 50
0.0
 51
90.0
  0
ARC
  5
154
102
{ACAD_REACTORS
330
1B9
330
1BA
102
}
330
47
100
AcDbEntity
  8
0
  6
Continuous
 62
     2
100
AcDbCircle
 10
-70.56417758184637
 20
21.67402031324681
 30
0.0
 40
0.3157169230761203
100
AcDbArc
 50
295.1944106485397
 51
0.0
  0
ARC
  5
155
102
{ACAD_REACTORS
330
1B9
330
1BA
102
}
330
47
100
AcDbEntity
  8
0
  6
Continuous
 62
     2
100
AcDbCircle
 10
-70.56417758184637
 20
17.92158988959022
 30
0.0
 40
0.3157169230766996
100
AcDbArc
 50
270.0
 51
0.0
  0
ARC
  5
156
102
{ACAD_REACTORS
330
1B9
330
1BA
102
}
330
47
100
AcDbEntity
  8
0
  6
Continuous
 62
     2
100
AcDbCircle
 10
-72.63390551960248
 20
22.88207279554013
 30
0.0
 40
0.4242446153837918
100
AcDbArc
 50
90.0
 51
180.0
  0
ARC
  5
157
102
{ACAD_REACTORS
330
1B9
330
1BA
102
}
330
47
100
AcDbEntity
  8
0
  6
Continuous
 62
     2
100
AcDbCircle
 10
-67.16059342888568
 20
22.88207279554013
 30
0.0
 40
0.4242446153838841
100
AcDbArc
 50
0.0
 51
90.0
  0
ARC
  5
158
102
{ACAD_REACTORS
330
1B9
330
1BA
102
}
330
47
100
AcDbEntity
  8
0
  6
Continuous
 62
     2
100
AcDbCircle
 10
-67.16059342888568
 20
17.31756202633991
 30
0.0
 40
0.4242446153832802
100
AcDbArc
 50
270.0
 51
0.0
  0
ARC
  5
159
102
{ACAD_REACTORS
330
1B7
330
1B8
102
}
330
47
100
AcDbEntity
  8
0
  6
Continuous
 62
     2
100
AcDbCircle
 10
-57.94220954179417
 20
21.77941264903623
 30
0.0
 40
0.7717997786796373
100
AcDbArc
 50
321.8795802028437
 51
38.12041979715956
  0
ARC
  5
15A
102
{ACAD_REACTORS
330
1B7
330
1B8
102
}
330
47
100
AcDbEntity
  8
0
  6
Continuous
 62
     2
100
AcDbCircle
 10
-57.74246950544799
 20
21.62268147091581
 30
0.0
 40
0.5179085730134337
100
AcDbArc
 50
218.1204197971519
 51
321.8795802028569
  0
ARC
  5
15B
102
{ACAD_REACTORS
330
1B5
330
1B6
102
}
330
47
100
AcDbEntity
  8
0
  6
Continuous
 62
     2
100
AcDbCircle
 10
-61.42247709440818
 20
18.42022217286191
 30
0.0
 40
1.458034083652003
100
AcDbArc
 50
297.548148175701
 51
62.45185182429901
  0
ARC
  5
15C
102
{ACAD_REACTORS
330
1B5
330
1B6
102
}
330
47
100
AcDbEntity
  8
0
  6
Continuous
 62
     2
100
AcDbCircle
 10
-61.98435687807478
 20
18.42022217286191
 30
0.0
 40
1.458034083651496
100
AcDbArc
 50
117.5481481756626
 51
242.4518518243373
  0
ARC
  5
15D
102
{ACAD_REACTORS
330
1B5
330
1B6
102
}
330
47
100
AcDbEntity
  8
0
  6
Continuous
 62
     2
100
AcDbCircle
 10
-61.70341698624148
 20
17.88164716255912
 30
0.0
 40
2.065479772208568
100
AcDbArc
 50
62.45185182430637
 51
117.5481481756666
  0
ARC
  5
15E
102
{ACAD_REACTORS
330
1B5
330
1B6
102
}
330
47
100
AcDbEntity
  8
0
  6
Continuous
 62
     2
100
AcDbCircle
 10
-61.70341698624148
 20
18.95879718316522
 30
0.0
 40
2.065479772208518
100
AcDbArc
 50
242.4518518243401
 51
297.548148175687
  0
ARC
  5
15F
102
{ACAD_REACTORS
330
1B7
330
1B8
102
}
330
47
100
AcDbEntity
  8
0
  6
Continuous
 62
     2
100
AcDbCircle
 10
-57.54272946910169
 20
21.77941264903623
 30
0.0
 40
0.7717997786796724
100
AcDbArc
 50
141.8795802028404
 51
218.1204197971562
  0
ARC
  5
160
102
{ACAD_REACTORS
330
1B7
330
1B8
102
}
330
47
100
AcDbEntity
  8
0
  6
Continuous
 62
     2
100
AcDbCircle
 10
-57.74246950544799
 20
21.93614382715671
 30
0.0
 40
0.5179085730135343
100
AcDbArc
 50
38.12041979714316
 51
141.8795802028481
  0
ARC
  5
161
102
{ACAD_REACTORS
330
1B9
330
1BA
102
}
330
47
100
AcDbEntity
  8
0
  6
Continuous
 62
     2
100
AcDbCircle
 10
-72.63390551960248
 20
17.31756202633991
 30
0.0
 40
0.4242446153828041
100
AcDbArc
 50
180.0
 51
270.0
  0
ARC
  5
162
102
{ACAD_REACTORS
330
1B9
330
1BA
102
}
330
47
100
AcDbEntity
  8
0
  6
Continuous
 62
     2
100
AcDbCircle
 10
-70.56417758184637
 20
19.45236082112183
 30
0.0
 40
0.315716923076593
100
AcDbArc
 50
0.0
 51
64.80558935146027
  0
ARC
  5
163
102
{ACAD_REACTORS
330
1B9
330
1BA
102
}
330
47
100
AcDbEntity
  8
0
  6
Continuous
 62
     2
100
AcDbCircle
 10
-70.04159313427138
 20
20.56319056718462
 30
0.0
 40
0.9118975235576114
100
AcDbArc
 50
115.1944106485283
 51
244.8055893514878
  0
ARC
  5
164
102
{ACAD_REACTORS
330
1B9
330
1BA
102
}
330
47
100
AcDbEntity
  8
0
  6
Continuous
 62
     2
100
AcDbCircle
 10
-72.04001084285599
 20
22.27804493230732
 30
0.0
 40
0.3157169230761987
100
AcDbArc
 50
90.0
 51
180.0
  0
ARC
  5
165
102
{ACAD_REACTORS
330
1B3
330
1B4
102
}
330
47
100
AcDbEntity
  8
0
  6
Continuous
 62
     2
100
AcDbCircle
 10
-64.70143226083897
 20
22.29034774083092
 30
0.0
 40
0.3528638246711111
100
AcDbArc
 50
270.0
 51
90.0
  0
ARC
  5
166
102
{ACAD_REACTORS
330
1B7
330
1B8
102
}
330
47
100
AcDbEntity
  8
0
  6
Continuous
 62
     2
100
AcDbCircle
 10
-57.95874151561318
 20
21.77941264903623
 30
0.0
 40
1.526904761905879
100
AcDbArc
 50
90.0
 51
270.0
  0
ARC
  5
167
102
{ACAD_REACTORS
330
1BB
330
1BC
102
}
330
47
100
AcDbEntity
  8
0
  6
Continuous
 62
     2
100
AcDbCircle
 10
-48.53174642290946
 20
18.30743181082701
 30
0.0
 40
1.639695123940221
100
AcDbArc
 50
90.0
 51
164.938108222895
  0
ARC
  5
168
102
{ACAD_REACTORS
330
1BB
330
1BC
102
}
330
47
100
AcDbEntity
  8
0
  6
Continuous
 62
     2
100
AcDbCircle
 10
-48.95087426637107
 20
18.42022217286191
 30
0.0
 40
1.205656168393002
100
AcDbArc
 50
164.9381082229028
 51
195.0618917770958
  0
ARC
  5
169
102
{ACAD_REACTORS
330
1BB
330
1BC
102
}
330
47
100
AcDbEntity
  8
0
  6
Continuous
 62
     2
100
AcDbCircle
 10
-48.40100194159368
 20
18.21515074352342
 30
0.0
 40
0.5115800601960153
100
AcDbArc
 50
208.521473257687
 51
246.6277221118447
  0
ARC
  5
16A
102
{ACAD_REACTORS
330
1BB
330
1BC
102
}
330
47
100
AcDbEntity
  8
0
  6
Continuous
 62
     2
100
AcDbCircle
 10
-48.40100194159368
 20
18.62529360220091
 30
0.0
 40
0.511580060194421
100
AcDbArc
 50
109.337143219485
 51
151.4785267424214
  0
ARC
  5
16B
102
{ACAD_REACTORS
330
1B9
330
1BA
102
}
330
47
100
AcDbEntity
  8
0
  6
Continuous
 62
     2
100
AcDbCircle
 10
-69.46446215632429
 20
18.87219756052113
 30
0.0
 40
0.315716923076792
100
AcDbArc
 50
180.0
 51
269.8110329574542
  0
ARC
  5
16C
102
{ACAD_REACTORS
330
1B9
330
1BA
102
}
330
47
100
AcDbEntity
  8
0
  6
Continuous
 62
     2
100
AcDbCircle
 10
-69.45884602101427
 20
20.57503250809012
 30
0.0
 40
2.018561131933269
100
AcDbArc
 50
269.8110329575858
 51
90.18896704241416
  0
ARC
  5
16D
102
{ACAD_REACTORS
330
1B9
330
1BA
102
}
330
47
100
AcDbEntity
  8
0
  6
Continuous
 62
     2
100
AcDbCircle
 10
-69.46446215632429
 20
21.67233216715243
 30
0.0
 40
0.315716923076792
100
AcDbArc
 50
180.0
 51
244.6259913216473
  0
ARC
  5
16E
102
{ACAD_REACTORS
330
1B9
330
1BA
102
}
330
47
100
AcDbEntity
  8
0
  6
Continuous
 62
     2
100
AcDbCircle
 10
-69.46446215632429
 20
19.45404896721621
 30
0.0
 40
0.315716923076536
100
AcDbArc
 50
115.3740086783516
 51
180.0
  0
ARC
  5
16F
102
{ACAD_REACTORS
330
1BD
330
1BE
102
}
330
47
100
AcDbEntity
  8
0
  6
Continuous
 62
     2
100
AcDbCircle
 10
-64.63444790216238
 20
18.30743181082701
 30
0.0
 40
1.639695123940507
100
AcDbArc
 50
84.84185523036236
 51
164.9381082228864
  0
ARC
  5
170
102
{ACAD_REACTORS
330
1BD
330
1BE
102
}
330
47
100
AcDbEntity
  8
0
  6
Continuous
 62
     2
100
AcDbCircle
 10
-65.05357574562518
 20
18.42022217286191
 30
0.0
 40
1.205656168390944
100
AcDbArc
 50
164.9381082228765
 51
195.0618917770945
  0
ARC
  5
171
102
{ACAD_REACTORS
330
1BD
330
1BE
102
}
330
47
100
AcDbEntity
  8
0
  6
Continuous
 62
     2
100
AcDbCircle
 10
-64.63444790216238
 20
18.53301253489673
 30
0.0
 40
1.639695123939387
100
AcDbArc
 50
195.0618917770896
 51
275.1581447696395
  0
ARC
  5
172
102
{ACAD_REACTORS
330
1BD
330
1BE
102
}
330
47
100
AcDbEntity
  8
0
  6
Continuous
 62
     2
100
AcDbCircle
 10
-64.92330399689828
 20
21.73290311811832
 30
0.0
 40
4.852596863498145
100
AcDbArc
 50
275.1581447696249
 51
285.9799912583529
  0
ARC
  5
173
102
{ACAD_REACTORS
330
1BD
330
1BE
102
}
330
47
100
AcDbEntity
  8
0
  6
Continuous
 62
     2
100
AcDbCircle
 10
-64.12634616276628
 20
18.42022217286191
 30
0.0
 40
0.9410597353332545
100
AcDbArc
 50
151.4785267422669
 51
208.5214732577057
  0
ARC
  5
174
102
{ACAD_REACTORS
330
1BD
330
1BE
102
}
330
47
100
AcDbEntity
  8
0
  6
Continuous
 62
     2
100
AcDbCircle
 10
-64.50370342084659
 20
18.62529360220091
 30
0.0
 40
0.5115800601948811
100
AcDbArc
 50
113.372277888199
 51
151.4785267423044
  0
ARC
  5
175
102
{ACAD_REACTORS
330
1BD
330
1BE
102
}
330
47
100
AcDbEntity
  8
0
  6
Continuous
 62
     2
100
AcDbCircle
 10
-64.76543112180536
 20
17.00975580745373
 30
0.0
 40
2.227384008973474
100
AcDbArc
 50
58.06909105004068
 51
71.55192388186722
  0
ARC
  5
176
102
{ACAD_REACTORS
330
1B5
330
1B6
102
}
330
47
100
AcDbEntity
  8
0
  6
Continuous
 62
     2
100
AcDbCircle
 10
-61.70341698624148
 20
18.57695335098242
 30
0.0
 40
0.5179085730133021
100
AcDbArc
 50
38.12041979714734
 51
141.8795802028585
  0
ARC
  5
177
102
{ACAD_REACTORS
330
1B5
330
1B6
102
}
330
47
100
AcDbEntity
  8
0
  6
Continuous
 62
     2
100
AcDbCircle
 10
-61.50367694989538
 20
18.42022217286191
 30
0.0
 40
0.7717997786794676
100
AcDbArc
 50
141.8795802028359
 51
218.1204197971687
  0
ARC
  5
178
102
{ACAD_REACTORS
330
1B5
330
1B6
102
}
330
47
100
AcDbEntity
  8
0
  6
Continuous
 62
     2
100
AcDbCircle
 10
-61.70341698624148
 20
18.26349099474192
 30
0.0
 40
0.5179085730137419
100
AcDbArc
 50
218.120419797194
 51
321.8795802028001
  0
ARC
  5
179
102
{ACAD_REACTORS
330
1B5
330
1B6
102
}
330
47
100
AcDbEntity
  8
0
  6
Continuous
 62
     2
100
AcDbCircle
 10
-61.90315702258789
 20
18.42022217286191
 30
0.0
 40
0.7717997786796947
100
AcDbArc
 50
321.8795802028417
 51
38.1204197971537
  0
CIRCLE
  5
17A
330
47
100
AcDbEntity
  8
1
  6
Continuous
 62
     2
100
AcDbCircle
 10
-64.55815013498528
 20
30.72481741094023
 30
0.0
 40
2.5
  0
CIRCLE
  5
17B
330
47
100
AcDbEntity
  8
1
  6
Continuous
 62
     2
100
AcDbCircle
 10
-64.55815013498528
 20
30.72481741094023
 30
0.0
 40
1.249999999999915
  0
CIRCLE
  5
17C
102
{ACAD_REACTORS
330
1B9
330
1BA
102
}
330
47
100
AcDbEntity
  8
0
  6
Continuous
 62
     2
100
AcDbCircle
 10
-70.01431986908497
 20
20.56319056718462
 30
0.0
 40
0.4709789327785074
  0
MTEXT
  5
17E
330
47
100
AcDbEntity
  8
1
 62
     3
100
AcDbMText
 10
-234.7449327087261
 20
196.3911255662391
 30
0.0
 40
1.8
 41
0.0
 71
     7
 72
     1
  3
Weitergabe sowie Vervielf\U+00e4ltigung dieses Dokuments, Verwertung und \PMitteilung seines Inhalts sind verboten, soweit nicht ausdr\U+00fccklich gestattet. \PZuwiderhandlungen verpflichten zu Schadenersatz. Alle Rechte f\U+00fcr den Fall\Pder Pat
  1
ent-, Gebrauchsmuster- oder Designeintragung vorbehalten.
  7
CONVERTER_11
 73
     1
 44
0.99639855942377
  0
MTEXT
  5
17F
330
47
100
AcDbEntity
  8
1
 62
     3
100
AcDbMText
 10
-51.89182286993798
 20
196.3911255662391
 30
0.0
 40
1.8
 41
0.0
 71
     7
 72
     1
  3
Transfer or duplication of this document as well as the utilisation or\Pcommunication of its content are not permitted unless express consent\Pis granted. Violations give rise to claims for damages. All rights reserved\Pin case of patent, utility mo
  1
del or design patent registrations.
  7
CONVERTER_11
 73
     1
 44
0.99639855942377
  0
TEXT
  5
180
330
47
100
AcDbEntity
  8
1
 62
     2
100
AcDbText
 10
-58.09480502154807
 20
10.8408001959487
 30
0.0
 40
1.8
  1
of
 41
0.9
  7
CONVERTER_11
100
AcDbText
  0
TEXT
  5
181
330
47
100
AcDbEntity
  8
1
 62
     2
100
AcDbText
 10
-76.29480502154789
 20
10.84080019594865
 30
0.0
 40
1.8
  1
page
 41
0.9
  7
CONVERTER_11
100
AcDbText
  0
TEXT
  5
182
330
47
100
AcDbEntity
  8
1
 62
     2
100
AcDbText
 10
-67.64854005120588
 20
10.80056875713831
 30
0.0
 40
1.8
  1
1
 41
0.9
  7
CONVERTER_11
100
AcDbText
  0
TEXT
  5
183
330
47
100
AcDbEntity
  8
1
 62
     2
100
AcDbText
 10
-52.85949621173438
 20
10.8498174109402
 30
0.0
 40
1.8
  1
1
 41
0.9
  7
CONVERTER_11
100
AcDbText
  0
MTEXT
  5
185
330
47
100
AcDbEntity
  8
1
 62
     7
100
AcDbMText
 10
5.67759724182761
 20
12.84981741094055
 30
0.0
 40
3.0
 41
0.0
 71
     5
 72
     1
  1
D-QTC 2,5-TWIN
  7
CONVERTER_12
 73
     1
 44
1.20048019207683
  0
MTEXT
  5
186
330
47
100
AcDbEntity
  8
1
 62
     2
100
AcDbMText
 10
-39.89480502154797
 20
17.09981741094032
 30
0.0
 40
1.8
 41
0.0
 71
     1
 72
     1
  1
description
  7
CONVERTER_11
 73
     1
 44
1.20048019207683
  0
MTEXT
  5
187
330
47
100
AcDbEntity
  8
1
 62
     3
100
AcDbMText
 10
-51.09480502154798
 20
30.72481741094032
 30
0.0
 40
2.5
 41
0.0
 71
     5
 72
     1
  1
DIN A4
  7
CONVERTER_11
 73
     1
 44
1.20048019207683
  0
MTEXT
  5
188
330
47
100
AcDbEntity
  8
1
 62
     7
100
AcDbMText
 10
-237.250000494797
 20
32.09981741094032
 30
0.0
 40
3.5
 41
0.0
 71
     5
 72
     1
  1
D
  7
CONVERTER_11
 73
     1
 44
1.20048019207683
  0
MTEXT
  5
189
330
47
100
AcDbEntity
  8
1
 62
     7
100
AcDbMText
 10
-237.250000494797
 20
84.59981741094032
 30
0.0
 40
3.5
 41
0.0
 71
     5
 72
     1
  1
C
  7
CONVERTER_11
 73
     1
 44
1.20048019207683
  0
MTEXT
  5
18A
330
47
100
AcDbEntity
  8
1
 62
     7
100
AcDbMText
 10
-237.250000494797
 20
134.5998174109403
 30
0.0
 40
3.5
 41
0.0
 71
     5
 72
     1
  1
B
  7
CONVERTER_11
 73
     1
 44
1.20048019207683
  0
MTEXT
  5
18B
330
47
100
AcDbEntity
  8
1
 62
     7
100
AcDbMText
 10
-237.250000494797
 20
187.0998174109403
 30
0.0
 40
3.5
 41
0.0
 71
     5
 72
     1
  1
A
  7
CONVERTER_11
 73
     1
 44
1.20048019207683
  0
MTEXT
  5
18C
330
47
100
AcDbEntity
  8
1
 62
     7
100
AcDbMText
 10
32.99999950520132
 20
7.0998174109402
 30
0.0
 40
3.5
 41
0.0
 71
     5
 72
     1
  1
6
  7
CONVERTER_11
 73
     1
 44
1.20048019207683
  0
MTEXT
  5
18D
330
47
100
AcDbEntity
  8
1
 62
     7
100
AcDbMText
 10
-16.25000049479789
 20
7.0998174109402
 30
0.0
 40
3.5
 41
0.0
 71
     5
 72
     1
  1
5
  7
CONVERTER_11
 73
     1
 44
1.20048019207683
  0
MTEXT
  5
18E
330
47
100
AcDbEntity
  8
1
 62
     7
100
AcDbMText
 10
-66.25000049479797
 20
7.0998174109402
 30
0.0
 40
3.5
 41
0.0
 71
     5
 72
     1
  1
4
  7
CONVERTER_11
 73
     1
 44
1.20048019207683
  0
MTEXT
  5
18F
330
47
100
AcDbEntity
  8
1
 62
     7
100
AcDbMText
 10
-116.2500004947979
 20
7.0998174109402
 30
0.0
 40
3.5
 41
0.0
 71
     5
 72
     1
  1
3
  7
CONVERTER_11
 73
     1
 44
1.20048019207683
  0
MTEXT
  5
190
330
47
100
AcDbEntity
  8
1
 62
     7
100
AcDbMText
 10
-166.2500004947979
 20
7.0998174109402
 30
0.0
 40
3.5
 41
0.0
 71
     5
 72
     1
  1
2
  7
CONVERTER_11
 73
     1
 44
1.20048019207683
  0
MTEXT
  5
191
330
47
100
AcDbEntity
  8
1
 62
     7
100
AcDbMText
 10
-215.5000004947975
 20
7.0998174109402
 30
0.0
 40
3.5
 41
0.0
 71
     5
 72
     1
  1
1
  7
CONVERTER_11
 73
     1
 44
1.20048019207683
  0
MTEXT
  5
192
330
47
100
AcDbEntity
  8
1
 62
     7
100
AcDbMText
 10
54.74999950520112
 20
32.09981741094032
 30
0.0
 40
3.5
 41
0.0
 71
     5
 72
     1
  1
D
  7
CONVERTER_11
 73
     1
 44
1.20048019207683
  0
MTEXT
  5
193
330
47
100
AcDbEntity
  8
1
 62
     7
100
AcDbMText
 10
54.74999950520112
 20
134.5998174109422
 30
0.0
 40
3.5
 41
0.0
 71
     5
 72
     1
  1
B
  7
CONVERTER_11
 73
     1
 44
1.20048019207683
  0
MTEXT
  5
194
330
47
100
AcDbEntity
  8
1
 62
     7
100
AcDbMText
 10
54.74999950520112
 20
187.0998174109403
 30
0.0
 40
3.5
 41
0.0
 71
     5
 72
     1
  1
A
  7
CONVERTER_11
 73
     1
 44
1.20048019207683
  0
MTEXT
  5
195
330
47
100
AcDbEntity
  8
1
 62
     7
100
AcDbMText
 10
54.74999950520112
 20
84.59981741094222
 30
0.0
 40
3.5
 41
0.0
 71
     5
 72
     1
  1
C
  7
CONVERTER_11
 73
     1
 44
1.20048019207683
  0
MTEXT
  5
196
330
47
100
AcDbEntity
  8
1
 62
     2
100
AcDbMText
 10
-111.7328197465954
 20
22.34981741094023
 30
0.0
 40
2.0
 41
0.0
 71
     5
 72
     1
  1
General Information\P- Simplified representation\P- Document excluded from change process\P- Linear dimensions [mm]
  7
CONVERTER_11
 73
     1
 44
1.20048019207683
  0
TEXT
  5
197
330
47
100
AcDbEntity
  8
1
 62
     7
100
AcDbText
 10
-39.39480502154817
 20
19.39981741094022
 30
0.0
 40
2.5
  1
3206571
 41
0.81
  7
CONVERTER_12
100
AcDbText
  0
MTEXT
  5
198
330
47
100
AcDbEntity
  8
1
 62
     2
100
AcDbMText
 10
-39.79480502154789
 20
25.59981741094032
 30
0.0
 40
1.8
 41
0.0
 71
     1
 72
     1
  1
ident.-No.
  7
CONVERTER_11
 73
     1
 44
1.20048019207683
  0
MTEXT
  5
199
330
47
100
AcDbEntity
  8
1
 62
     2
100
AcDbMText
 10
44.43159122352483
 20
34.09981741094032
 30
0.0
 40
1.8
 41
0.0
 71
     1
 72
     1
  1
scale
  7
CONVERTER_11
 73
     1
 44
1.20048019207683
  0
MTEXT
  5
19B
330
47
100
AcDbEntity
  8
1
 62
     3
100
AcDbMText
 10
47.79079536436443
 20
27.89981741094042
 30
0.0
 40
2.5
 41
0.0
 71
     8
 72
     1
  1
1:1
  7
CONVERTER_13
 73
     1
 44
1.32052821128451
  0
TEXT
  5
19C
330
47
100
AcDbEntity
  8
1
 62
     7
100
AcDbText
 10
-39.79480502154789
 20
27.89981741094022
 30
0.0
 40
2.5
  1
00354076
 41
0.81
  7
CONVERTER_12
100
AcDbText
  0
MTEXT
  5
19E
330
47
100
AcDbEntity
  8
1
 62
     2
100
AcDbMText
 10
-39.79480502154789
 20
34.09981741094032
 30
0.0
 40
1.8
 41
0.0
 71
     1
 72
     1
  1
document-No. / RI
  7
CONVERTER_14
 73
     1
 44
1.32052821128451
  0
TEXT
  5
19F
330
47
100
AcDbEntity
  8
1
 62
     3
100
AcDbText
 10
-11.99480502154788
 20
19.39981741094022
 30
0.0
 40
2.5
  1
TECDOC 2D_Productdrawing
 41
0.81
  7
CONVERTER_12
100
AcDbText
  0
MTEXT
  5
1A0
330
47
100
AcDbEntity
  8
1
 62
     2
100
AcDbMText
 10
-11.99480502154788
 20
25.59981741094023
 30
0.0
 40
1.8
 41
0.0
 71
     1
 72
     1
  1
document-type
  7
CONVERTER_11
 73
     1
 44
1.20048019207683
  0
MTEXT
  5
1A1
330
47
100
AcDbEntity
  8
1
 62
     2
100
AcDbMText
 10
17.83159122352501
 20
34.09981741094023
 30
0.0
 40
1.8
 41
0.0
 71
     1
 72
     1
  1
date
  7
CONVERTER_11
 73
     1
 44
1.32052821128451
  0
TEXT
  5
1A2
330
47
100
AcDbEntity
  8
1
 62
     3
100
AcDbText
 10
17.83159122352501
 20
27.89981741094022
 30
0.0
 40
2.5
  1
27.01.2018
 41
0.81
  7
CONVERTER_12
100
AcDbText
  0
TEXT
  5
1A3
330
47
100
AcDbEntity
  8
1
 62
     7
100
AcDbText
 10
-19.76489280249209
 20
27.89981741094022
 30
0.0
 40
2.5
  1
01
 41
0.81
  7
CONVERTER_12
100
AcDbText
  0
TEXT
  5
1A4
330
47
100
AcDbEntity
  8
1
 62
     7
100
AcDbText
 10
-21.92125729953409
 20
27.89981741094022
 30
0.0
 40
2.5
  1
/
 41
0.9
  7
CONVERTER_11
100
AcDbText
  0
HATCH
  5
1A5
330
47
100
AcDbEntity
  8
1
  6
Continuous
 62
     2
100
AcDbHatch
 10
0.0
 20
0.0
 30
0.0
210
0.0
220
0.0
230
1.0
  2
_USER
 70
     0
 71
     1
 91
        1
 92
        1
 93
       12
 72
     1
 10
-59.62730430858679
 20
20.25250788713092
 11
-60.82009701075319
 21
20.25250788713092
 72
     1
 10
-60.82009701075319
 20
20.25250788713092
 11
-60.82009701075319
 21
21.38677999597473
 72
     1
 10
-60.82009701075319
 20
21.38677999597473
 11
-61.86975458866067
 21
21.38677999597473
 72
     1
 10
-61.86975458866067
 20
21.38677999597473
 11
-61.86975458866067
 21
20.25250788713092
 72
     1
 10
-61.86975458866067
 20
20.25250788713092
 11
-63.06254729082727
 21
20.25250788713092
 72
     1
 10
-63.06254729082727
 20
20.25250788713092
 11
-63.06254729082727
 21
23.30631741094211
 72
     1
 10
-63.06254729082727
 20
23.30631741094211
 11
-61.86975458866067
 21
23.30631741094211
 72
     1
 10
-61.86975458866067
 20
23.30631741094211
 11
-61.86975458866067
 21
22.23748407760752
 72
     1
 10
-61.86975458866067
 20
22.23748407760752
 11
-60.82009701075319
 21
22.23748407760752
 72
     1
 10
-60.82009701075319
 20
22.23748407760752
 11
-60.82009701075319
 21
23.30631741094211
 72
     1
 10
-60.82009701075319
 20
23.30631741094211
 11
-59.62730430858679
 21
23.30631741094211
 72
     1
 10
-59.62730430858679
 20
23.30631741094211
 11
-59.62730430858679
 21
20.25250788713092
 97
       12
330
111
330
112
330
FC
330
FB
330
FA
330
10E
330
F9
330
10F
330
110
330
F8
330
F7
330
F6
 75
     1
 76
     0
 52
45.0
 41
0.1
 77
     0
 78
     1
 53
45.0
 43
0.0
 44
0.0
 45
-0.0707106781186548
 46
0.0707106781186548
 79
     0
 98
        1
 10
0.0
 20
0.0
  0
HATCH
  5
1A6
330
47
100
AcDbEntity
  8
1
  6
Continuous
 62
     2
100
AcDbHatch
 10
0.0
 20
0.0
 30
0.0
210
0.0
220
0.0
230
1.0
  2
_USER
 70
     0
 71
     1
 91
        1
 92
        1
 93
       12
 72
     1
 10
-59.62730430858679
 20
20.25250788713092
 11
-60.82009701075319
 21
20.25250788713092
 72
     1
 10
-60.82009701075319
 20
20.25250788713092
 11
-60.82009701075319
 21
21.38677999597473
 72
     1
 10
-60.82009701075319
 20
21.38677999597473
 11
-61.86975458866067
 21
21.38677999597473
 72
     1
 10
-61.86975458866067
 20
21.38677999597473
 11
-61.86975458866067
 21
20.25250788713092
 72
     1
 10
-61.86975458866067
 20
20.25250788713092
 11
-63.06254729082727
 21
20.25250788713092
 72
     1
 10
-63.06254729082727
 20
20.25250788713092
 11
-63.06254729082727
 21
23.30631741094211
 72
     1
 10
-63.06254729082727
 20
23.30631741094211
 11
-61.86975458866067
 21
23.30631741094211
 72
     1
 10
-61.86975458866067
 20
23.30631741094211
 11
-61.86975458866067
 21
22.23748407760752
 72
     1
 10
-61.86975458866067
 20
22.23748407760752
 11
-60.82009701075319
 21
22.23748407760752
 72
     1
 10
-60.82009701075319
 20
22.23748407760752
 11
-60.82009701075319
 21
23.30631741094211
 72
     1
 10
-60.82009701075319
 20
23.30631741094211
 11
-59.62730430858679
 21
23.30631741094211
 72
     1
 10
-59.62730430858679
 20
23.30631741094211
 11
-59.62730430858679
 21
20.25250788713092
 97
       12
330
111
330
112
330
FC
330
FB
330
FA
330
10E
330
F9
330
10F
330
110
330
F8
330
F7
330
F6
 75
     1
 76
     0
 52
45.0
 41
0.1
 77
     0
 78
     1
 53
45.0
 43
0.0
 44
0.0
 45
-0.0707106781186548
 46
0.0707106781186548
 79
     0
 98
        1
 10
0.0
 20
0.0
  0
HATCH
  5
1A7
330
47
100
AcDbEntity
  8
1
  6
Continuous
 62
     2
100
AcDbHatch
 10
0.0
 20
0.0
 30
0.0
210
0.0
220
0.0
230
1.0
  2
_USER
 70
     0
 71
     1
 91
        1
 92
        1
 93
       10
 72
     1
 10
-57.38500495939849
 20
18.63835142456262
 11
-58.62550936965138
 21
19.94712693476771
 72
     1
 10
-58.62550936965138
 20
19.94712693476771
 11
-59.81830207181898
 21
19.94712693476771
 72
     1
 10
-59.81830207181898
 20
19.94712693476771
 11
-59.81830207181898
 21
16.89331741095663
 72
     1
 10
-59.81830207181898
 20
16.89331741095663
 11
-58.62550936965138
 21
16.89331741095663
 72
     1
 10
-58.62550936965138
 20
16.89331741095663
 11
-58.62550936965138
 21
18.20209292116121
 72
     1
 10
-58.62550936965138
 20
18.20209292116121
 11
-57.38500495939849
 21
16.89331741095663
 72
     1
 10
-57.38500495939849
 20
16.89331741095663
 11
-56.19221225723209
 21
16.89331741095663
 72
     1
 10
-56.19221225723209
 20
16.89331741095663
 11
-56.19221225723209
 21
19.94712693476771
 72
     1
 10
-56.19221225723209
 20
19.94712693476771
 11
-57.38500495939849
 21
19.94712693476771
 72
     1
 10
-57.38500495939849
 20
19.94712693476771
 11
-57.38500495939849
 21
18.63835142456262
 97
       10
330
11F
330
EF
330
EE
330
F1
330
11A
330
11B
330
F0
330
11C
330
11D
330
11E
 75
     1
 76
     0
 52
45.0
 41
0.1
 77
     0
 78
     1
 53
45.0
 43
0.0
 44
0.0
 45
-0.0707106781186548
 46
0.0707106781186548
 79
     0
 98
        1
 10
0.0
 20
0.0
  0
HATCH
  5
1A8
330
47
100
AcDbEntity
  8
1
  6
Continuous
 62
     2
100
AcDbHatch
 10
0.0
 20
0.0
 30
0.0
210
0.0
220
0.0
230
1.0
  2
_USER
 70
     0
 71
     1
 91
        1
 92
        1
 93
       10
 72
     1
 10
-57.38500495939849
 20
18.63835142456262
 11
-58.62550936965138
 21
19.94712693476771
 72
     1
 10
-58.62550936965138
 20
19.94712693476771
 11
-59.81830207181898
 21
19.94712693476771
 72
     1
 10
-59.81830207181898
 20
19.94712693476771
 11
-59.81830207181898
 21
16.89331741095663
 72
     1
 10
-59.81830207181898
 20
16.89331741095663
 11
-58.62550936965138
 21
16.89331741095663
 72
     1
 10
-58.62550936965138
 20
16.89331741095663
 11
-58.62550936965138
 21
18.20209292116121
 72
     1
 10
-58.62550936965138
 20
18.20209292116121
 11
-57.38500495939849
 21
16.89331741095663
 72
     1
 10
-57.38500495939849
 20
16.89331741095663
 11
-56.19221225723209
 21
16.89331741095663
 72
     1
 10
-56.19221225723209
 20
16.89331741095663
 11
-56.19221225723209
 21
19.94712693476771
 72
     1
 10
-56.19221225723209
 20
19.94712693476771
 11
-57.38500495939849
 21
19.94712693476771
 72
     1
 10
-57.38500495939849
 20
19.94712693476771
 11
-57.38500495939849
 21
18.63835142456262
 97
       10
330
11F
330
EF
330
EE
330
F1
330
11A
330
11B
330
F0
330
11C
330
11D
330
11E
 75
     1
 76
     0
 52
45.0
 41
0.1
 77
     0
 78
     1
 53
45.0
 43
0.0
 44
0.0
 45
-0.0707106781186548
 46
0.0707106781186548
 79
     0
 98
        1
 10
0.0
 20
0.0
  0
HATCH
  5
1A9
330
47
100
AcDbEntity
  8
1
  6
Continuous
 62
     2
100
AcDbHatch
 10
0.0
 20
0.0
 30
0.0
210
0.0
220
0.0
230
1.0
  2
_USER
 70
     0
 71
     1
 91
        1
 92
        1
 93
       10
 72
     1
 10
-52.13656613897877
 20
21.99754190073693
 11
-53.37707054923277
 21
23.30631741094211
 72
     1
 10
-53.37707054923277
 20
23.30631741094211
 11
-54.56986325139928
 21
23.30631741094211
 72
     1
 10
-54.56986325139928
 20
23.30631741094211
 11
-54.56986325139928
 21
20.25250788713092
 72
     1
 10
-54.56986325139928
 20
20.25250788713092
 11
-53.37707054923277
 21
20.25250788713092
 72
     1
 10
-53.37707054923277
 20
20.25250788713092
 11
-53.37707054923277
 21
21.56128339733562
 72
     1
 10
-53.37707054923277
 20
21.56128339733562
 11
-52.13656613897877
 21
20.25250788713092
 72
     1
 10
-52.13656613897877
 20
20.25250788713092
 11
-50.94377343681217
 21
20.25250788713092
 72
     1
 10
-50.94377343681217
 20
20.25250788713092
 11
-50.94377343681217
 21
23.30631741094211
 72
     1
 10
-50.94377343681217
 20
23.30631741094211
 11
-52.13656613897877
 21
23.30631741094211
 72
     1
 10
-52.13656613897877
 20
23.30631741094211
 11
-52.13656613897877
 21
21.99754190073693
 97
       10
330
124
330
EC
330
EB
330
125
330
EA
330
120
330
121
330
122
330
123
330
ED
 75
     1
 76
     0
 52
45.0
 41
0.1
 77
     0
 78
     1
 53
45.0
 43
0.0
 44
0.0
 45
-0.0707106781186548
 46
0.0707106781186548
 79
     0
 98
        1
 10
0.0
 20
0.0
  0
HATCH
  5
1AA
330
47
100
AcDbEntity
  8
1
  6
Continuous
 62
     2
100
AcDbHatch
 10
0.0
 20
0.0
 30
0.0
210
0.0
220
0.0
230
1.0
  2
_USER
 70
     0
 71
     1
 91
        1
 92
        1
 93
       10
 72
     1
 10
-52.13656613897877
 20
21.99754190073693
 11
-53.37707054923277
 21
23.30631741094211
 72
     1
 10
-53.37707054923277
 20
23.30631741094211
 11
-54.56986325139928
 21
23.30631741094211
 72
     1
 10
-54.56986325139928
 20
23.30631741094211
 11
-54.56986325139928
 21
20.25250788713092
 72
     1
 10
-54.56986325139928
 20
20.25250788713092
 11
-53.37707054923277
 21
20.25250788713092
 72
     1
 10
-53.37707054923277
 20
20.25250788713092
 11
-53.37707054923277
 21
21.56128339733562
 72
     1
 10
-53.37707054923277
 20
21.56128339733562
 11
-52.13656613897877
 21
20.25250788713092
 72
     1
 10
-52.13656613897877
 20
20.25250788713092
 11
-50.94377343681217
 21
20.25250788713092
 72
     1
 10
-50.94377343681217
 20
20.25250788713092
 11
-50.94377343681217
 21
23.30631741094211
 72
     1
 10
-50.94377343681217
 20
23.30631741094211
 11
-52.13656613897877
 21
23.30631741094211
 72
     1
 10
-52.13656613897877
 20
23.30631741094211
 11
-52.13656613897877
 21
21.99754190073693
 97
       10
330
124
330
EC
330
EB
330
125
330
EA
330
120
330
121
330
122
330
123
330
ED
 75
     1
 76
     0
 52
45.0
 41
0.1
 77
     0
 78
     1
 53
45.0
 43
0.0
 44
0.0
 45
-0.0707106781186548
 46
0.0707106781186548
 79
     0
 98
        1
 10
0.0
 20
0.0
  0
HATCH
  5
1AB
330
47
100
AcDbEntity
  8
1
  6
Continuous
 62
     2
100
AcDbHatch
 10
0.0
 20
0.0
 30
0.0
210
0.0
220
0.0
230
1.0
  2
_USER
 70
     0
 71
     1
 91
        1
 92
        1
 93
        8
 72
     1
 10
-53.23408635585827
 20
19.94712693476771
 11
-56.04907713297189
 21
19.94712693476771
 72
     1
 10
-56.04907713297189
 20
19.94712693476771
 11
-56.04907713297189
 21
19.16186162864412
 72
     1
 10
-56.04907713297189
 20
19.16186162864412
 11
-55.23797809549728
 21
19.16186162864412
 72
     1
 10
-55.23797809549728
 20
19.16186162864412
 11
-55.23797809549728
 21
16.89331741095663
 72
     1
 10
-55.23797809549728
 20
16.89331741095663
 11
-54.04518539333077
 21
16.89331741095663
 72
     1
 10
-54.04518539333077
 20
16.89331741095663
 11
-54.04518539333077
 21
19.16186162864412
 72
     1
 10
-54.04518539333077
 20
19.16186162864412
 11
-53.23408635585827
 21
19.16186162864412
 72
     1
 10
-53.23408635585827
 20
19.16186162864412
 11
-53.23408635585827
 21
19.94712693476771
 97
        8
330
E6
330
126
330
E5
330
127
330
128
330
E9
330
E8
330
E7
 75
     1
 76
     0
 52
45.0
 41
0.1
 77
     0
 78
     1
 53
45.0
 43
0.0
 44
0.0
 45
-0.0707106781186548
 46
0.0707106781186548
 79
     0
 98
        1
 10
0.0
 20
0.0
  0
HATCH
  5
1AC
330
47
100
AcDbEntity
  8
1
  6
Continuous
 62
     2
100
AcDbHatch
 10
0.0
 20
0.0
 30
0.0
210
0.0
220
0.0
230
1.0
  2
_USER
 70
     0
 71
     1
 91
        1
 92
        1
 93
        8
 72
     1
 10
-53.23408635585827
 20
19.94712693476771
 11
-56.04907713297189
 21
19.94712693476771
 72
     1
 10
-56.04907713297189
 20
19.94712693476771
 11
-56.04907713297189
 21
19.16186162864412
 72
     1
 10
-56.04907713297189
 20
19.16186162864412
 11
-55.23797809549728
 21
19.16186162864412
 72
     1
 10
-55.23797809549728
 20
19.16186162864412
 11
-55.23797809549728
 21
16.89331741095663
 72
     1
 10
-55.23797809549728
 20
16.89331741095663
 11
-54.04518539333077
 21
16.89331741095663
 72
     1
 10
-54.04518539333077
 20
16.89331741095663
 11
-54.04518539333077
 21
19.16186162864412
 72
     1
 10
-54.04518539333077
 20
19.16186162864412
 11
-53.23408635585827
 21
19.16186162864412
 72
     1
 10
-53.23408635585827
 20
19.16186162864412
 11
-53.23408635585827
 21
19.94712693476771
 97
        8
330
E6
330
126
330
E5
330
127
330
128
330
E9
330
E8
330
E7
 75
     1
 76
     0
 52
45.0
 41
0.1
 77
     0
 78
     1
 53
45.0
 43
0.0
 44
0.0
 45
-0.0707106781186548
 46
0.0707106781186548
 79
     0
 98
        1
 10
0.0
 20
0.0
  0
HATCH
  5
1AD
330
47
100
AcDbEntity
  8
1
  6
Continuous
 62
     2
100
AcDbHatch
 10
0.0
 20
0.0
 30
0.0
210
0.0
220
0.0
230
1.0
  2
_USER
 70
     0
 71
     1
 91
        2
 92
        1
 93
        8
 72
     1
 10
-51.09565889991129
 20
16.89331741095663
 11
-51.30713895338707
 21
17.43427795517451
 72
     1
 10
-51.30713895338707
 20
17.43427795517451
 11
-52.43958053006088
 21
17.43427795517451
 72
     1
 10
-52.43958053006088
 20
17.43427795517451
 11
-52.65106058353669
 21
16.89331741095663
 72
     1
 10
-52.65106058353669
 20
16.89331741095663
 11
-53.89156499378967
 21
16.89331741095663
 72
     1
 10
-53.89156499378967
 20
16.89331741095663
 11
-52.49361194685037
 21
19.94712693476771
 72
     1
 10
-52.49361194685037
 20
19.94712693476771
 11
-51.25310753659767
 21
19.94712693476771
 72
     1
 10
-51.25310753659767
 20
19.94712693476771
 11
-49.85515448965737
 21
16.89331741095663
 72
     1
 10
-49.85515448965737
 20
16.89331741095663
 11
-51.09565889991129
 21
16.89331741095663
 97
        8
330
12A
330
12B
330
E2
330
12C
330
E1
330
E4
330
129
330
E3
 92
       16
 93
        3
 72
     1
 10
-52.17352497891588
 20
18.11484122048111
 11
-51.87335974172348
 21
18.88265618646781
 72
     1
 10
-51.87335974172348
 20
18.88265618646781
 11
-51.57319450453338
 21
18.11484122048111
 72
     1
 10
-51.57319450453338
 20
18.11484122048111
 11
-52.17352497891588
 21
18.11484122048111
 97
        3
330
E0
330
12E
330
12D
 75
     1
 76
     0
 52
45.0
 41
0.1
 77
     0
 78
     1
 53
45.0
 43
0.0
 44
0.0
 45
-0.0707106781186548
 46
0.0707106781186548
 79
     0
 98
        1
 10
0.0
 20
0.0
  0
HATCH
  5
1AE
330
47
100
AcDbEntity
  8
1
  6
Continuous
 62
     2
100
AcDbHatch
 10
0.0
 20
0.0
 30
0.0
210
0.0
220
0.0
230
1.0
  2
_USER
 70
     0
 71
     1
 91
        2
 92
        1
 93
        8
 72
     1
 10
-51.09565889991129
 20
16.89331741095663
 11
-51.30713895338707
 21
17.43427795517451
 72
     1
 10
-51.30713895338707
 20
17.43427795517451
 11
-52.43958053006088
 21
17.43427795517451
 72
     1
 10
-52.43958053006088
 20
17.43427795517451
 11
-52.65106058353669
 21
16.89331741095663
 72
     1
 10
-52.65106058353669
 20
16.89331741095663
 11
-53.89156499378967
 21
16.89331741095663
 72
     1
 10
-53.89156499378967
 20
16.89331741095663
 11
-52.49361194685037
 21
19.94712693476771
 72
     1
 10
-52.49361194685037
 20
19.94712693476771
 11
-51.25310753659767
 21
19.94712693476771
 72
     1
 10
-51.25310753659767
 20
19.94712693476771
 11
-49.85515448965737
 21
16.89331741095663
 72
     1
 10
-49.85515448965737
 20
16.89331741095663
 11
-51.09565889991129
 21
16.89331741095663
 97
        8
330
12A
330
12B
330
E2
330
12C
330
E1
330
E4
330
129
330
E3
 92
       16
 93
        3
 72
     1
 10
-52.17352497891588
 20
18.11484122048111
 11
-51.87335974172348
 21
18.88265618646781
 72
     1
 10
-51.87335974172348
 20
18.88265618646781
 11
-51.57319450453338
 21
18.11484122048111
 72
     1
 10
-51.57319450453338
 20
18.11484122048111
 11
-52.17352497891588
 21
18.11484122048111
 97
        3
330
E0
330
12E
330
12D
 75
     1
 76
     0
 52
45.0
 41
0.1
 77
     0
 78
     1
 53
45.0
 43
0.0
 44
0.0
 45
-0.0707106781186548
 46
0.0707106781186548
 79
     0
 98
        1
 10
0.0
 20
0.0
  0
HATCH
  5
1AF
330
47
100
AcDbEntity
  8
1
  6
Continuous
 62
     2
100
AcDbHatch
 10
0.0
 20
0.0
 30
0.0
210
0.0
220
0.0
230
1.0
  2
_USER
 70
     0
 71
     1
 91
        1
 92
        1
 93
        4
 72
     1
 10
-49.46471048612537
 20
20.25250788713092
 11
-50.70521489637827
 21
20.25250788713092
 72
     1
 10
-50.70521489637827
 20
20.25250788713092
 11
-50.70521489637827
 21
23.30631741094211
 72
     1
 10
-50.70521489637827
 20
23.30631741094211
 11
-49.46471048612537
 21
23.30631741094211
 72
     1
 10
-49.46471048612537
 20
23.30631741094211
 11
-49.46471048612537
 21
20.25250788713092
 97
        4
330
DD
330
DF
330
12F
330
DE
 75
     1
 76
     0
 52
45.0
 41
0.1
 77
     0
 78
     1
 53
45.0
 43
0.0
 44
0.0
 45
-0.0707106781186548
 46
0.0707106781186548
 79
     0
 98
        1
 10
0.0
 20
0.0
  0
HATCH
  5
1B0
330
47
100
AcDbEntity
  8
1
  6
Continuous
 62
     2
100
AcDbHatch
 10
0.0
 20
0.0
 30
0.0
210
0.0
220
0.0
230
1.0
  2
_USER
 70
     0
 71
     1
 91
        1
 92
        1
 93
        4
 72
     1
 10
-49.46471048612537
 20
20.25250788713092
 11
-50.70521489637827
 21
20.25250788713092
 72
     1
 10
-50.70521489637827
 20
20.25250788713092
 11
-50.70521489637827
 21
23.30631741094211
 72
     1
 10
-50.70521489637827
 20
23.30631741094211
 11
-49.46471048612537
 21
23.30631741094211
 72
     1
 10
-49.46471048612537
 20
23.30631741094211
 11
-49.46471048612537
 21
20.25250788713092
 97
        4
330
DD
330
DF
330
12F
330
DE
 75
     1
 76
     0
 52
45.0
 41
0.1
 77
     0
 78
     1
 53
45.0
 43
0.0
 44
0.0
 45
-0.0707106781186548
 46
0.0707106781186548
 79
     0
 98
        1
 10
0.0
 20
0.0
  0
HATCH
  5
1B1
330
47
100
AcDbEntity
  8
1
  6
Continuous
 62
     2
100
AcDbHatch
 10
0.0
 20
0.0
 30
0.0
210
0.0
220
0.0
230
1.0
  2
_USER
 70
     0
 71
     1
 91
        1
 92
        1
 93
       12
 72
     1
 10
-45.24222432045457
 20
23.30631741094211
 11
-46.54475395122108
 21
21.83336688090591
 72
     1
 10
-46.54475395122108
 20
21.83336688090591
 11
-45.14680090428078
 21
20.25250788713092
 72
     1
 10
-45.14680090428078
 20
20.25250788713092
 11
-46.54952512202908
 21
20.25250788713092
 72
     1
 10
-46.54952512202908
 20
20.25250788713092
 11
-47.24611606009458
 21
21.04023967242463
 72
     1
 10
-47.24611606009458
 20
21.04023967242463
 11
-47.94270699816028
 21
20.25250788713092
 72
     1
 10
-47.94270699816028
 20
20.25250788713092
 11
-49.34543121590849
 21
20.25250788713092
 72
     1
 10
-49.34543121590849
 20
20.25250788713092
 11
-47.94747816896819
 21
21.83336688090591
 72
     1
 10
-47.94747816896819
 20
21.83336688090591
 11
-49.25000779973567
 21
23.30631741094211
 72
     1
 10
-49.25000779973567
 20
23.30631741094211
 11
-47.84728358198638
 21
23.30631741094211
 72
     1
 10
-47.84728358198638
 20
23.30631741094211
 11
-47.24611606009458
 21
22.62649408938663
 72
     1
 10
-47.24611606009458
 20
22.62649408938663
 11
-46.64494853820179
 21
23.30631741094211
 72
     1
 10
-46.64494853820179
 20
23.30631741094211
 11
-45.24222432045457
 21
23.30631741094211
 97
       12
330
D8
330
D7
330
D6
330
133
330
134
330
130
330
131
330
DC
330
DB
330
DA
330
D9
330
132
 75
     1
 76
     0
 52
45.0
 41
0.1
 77
     0
 78
     1
 53
45.0
 43
0.0
 44
0.0
 45
-0.0707106781186548
 46
0.0707106781186548
 79
     0
 98
        1
 10
0.0
 20
0.0
  0
HATCH
  5
1B2
330
47
100
AcDbEntity
  8
1
  6
Continuous
 62
     2
100
AcDbHatch
 10
0.0
 20
0.0
 30
0.0
210
0.0
220
0.0
230
1.0
  2
_USER
 70
     0
 71
     1
 91
        1
 92
        1
 93
       12
 72
     1
 10
-45.24222432045457
 20
23.30631741094211
 11
-46.54475395122108
 21
21.83336688090591
 72
     1
 10
-46.54475395122108
 20
21.83336688090591
 11
-45.14680090428078
 21
20.25250788713092
 72
     1
 10
-45.14680090428078
 20
20.25250788713092
 11
-46.54952512202908
 21
20.25250788713092
 72
     1
 10
-46.54952512202908
 20
20.25250788713092
 11
-47.24611606009458
 21
21.04023967242463
 72
     1
 10
-47.24611606009458
 20
21.04023967242463
 11
-47.94270699816028
 21
20.25250788713092
 72
     1
 10
-47.94270699816028
 20
20.25250788713092
 11
-49.34543121590849
 21
20.25250788713092
 72
     1
 10
-49.34543121590849
 20
20.25250788713092
 11
-47.94747816896819
 21
21.83336688090591
 72
     1
 10
-47.94747816896819
 20
21.83336688090591
 11
-49.25000779973567
 21
23.30631741094211
 72
     1
 10
-49.25000779973567
 20
23.30631741094211
 11
-47.84728358198638
 21
23.30631741094211
 72
     1
 10
-47.84728358198638
 20
23.30631741094211
 11
-47.24611606009458
 21
22.62649408938663
 72
     1
 10
-47.24611606009458
 20
22.62649408938663
 11
-46.64494853820179
 21
23.30631741094211
 72
     1
 10
-46.64494853820179
 20
23.30631741094211
 11
-45.24222432045457
 21
23.30631741094211
 97
       12
330
D8
330
D7
330
D6
330
133
330
134
330
130
330
131
330
DC
330
DB
330
DA
330
D9
330
132
 75
     1
 76
     0
 52
45.0
 41
0.1
 77
     0
 78
     1
 53
45.0
 43
0.0
 44
0.0
 45
-0.0707106781186548
 46
0.0707106781186548
 79
     0
 98
        1
 10
0.0
 20
0.0
  0
HATCH
  5
1B3
330
47
100
AcDbEntity
  8
1
  6
Continuous
 62
     2
100
AcDbHatch
 10
0.0
 20
0.0
 30
0.0
210
0.0
220
0.0
230
1.0
  2
_USER
 70
     0
 71
     1
 91
        2
 92
        1
 93
        6
 72
     1
 10
-64.25995973460059
 20
21.19558612827473
 11
-65.01872732238087
 21
21.19558612827473
 72
     1
 10
-65.01872732238087
 20
21.19558612827473
 11
-65.01872732238087
 21
20.25250788713092
 72
     1
 10
-65.01872732238087
 20
20.25250788713092
 11
-66.25923173263499
 21
20.25250788713092
 72
     1
 10
-66.25923173263499
 20
20.25250788713092
 11
-66.25923173263499
 21
23.30631741094211
 72
     1
 10
-66.25923173263499
 20
23.30631741094211
 11
-64.25995973460059
 21
23.30631741094211
 72
     2
 10
-64.25995973460059
 20
22.25095176960843
 40
1.055365641333701
 50
270.0
 51
450.0
 73
     0
 97
        6
330
100
330
FF
330
10C
330
10B
330
101
330
151
 92
       16
 93
        4
 72
     2
 10
-64.70143226083897
 20
22.29034774083092
 40
0.3528638246711111
 50
270.0
 51
450.0
 73
     1
 72
     1
 10
-64.70143226083897
 20
22.64321156550201
 11
-65.01872732238087
 21
22.64321156550201
 72
     1
 10
-65.01872732238087
 20
22.64321156550201
 11
-65.01872732238087
 21
21.93748391615981
 72
     1
 10
-65.01872732238087
 20
21.93748391615981
 11
-64.70143226083897
 21
21.93748391615981
 97
        4
330
165
330
FD
330
10D
330
FE
 75
     1
 76
     0
 52
45.0
 41
0.1
 77
     0
 78
     1
 53
45.0
 43
0.0
 44
0.0
 45
-0.0707106781186548
 46
0.0707106781186548
 79
     0
 98
        1
 10
0.0
 20
0.0
  0
HATCH
  5
1B4
330
47
100
AcDbEntity
  8
1
  6
Continuous
 62
     2
100
AcDbHatch
 10
0.0
 20
0.0
 30
0.0
210
0.0
220
0.0
230
1.0
  2
_USER
 70
     0
 71
     1
 91
        2
 92
        1
 93
        6
 72
     1
 10
-64.25995973460059
 20
21.19558612827473
 11
-65.01872732238087
 21
21.19558612827473
 72
     1
 10
-65.01872732238087
 20
21.19558612827473
 11
-65.01872732238087
 21
20.25250788713092
 72
     1
 10
-65.01872732238087
 20
20.25250788713092
 11
-66.25923173263499
 21
20.25250788713092
 72
     1
 10
-66.25923173263499
 20
20.25250788713092
 11
-66.25923173263499
 21
23.30631741094211
 72
     1
 10
-66.25923173263499
 20
23.30631741094211
 11
-64.25995973460059
 21
23.30631741094211
 72
     2
 10
-64.25995973460059
 20
22.25095176960843
 40
1.055365641333701
 50
270.0
 51
450.0
 73
     0
 97
        6
330
100
330
FF
330
10C
330
10B
330
101
330
151
 92
       16
 93
        4
 72
     2
 10
-64.70143226083897
 20
22.29034774083092
 40
0.3528638246711111
 50
270.0
 51
450.0
 73
     1
 72
     1
 10
-64.70143226083897
 20
22.64321156550201
 11
-65.01872732238087
 21
22.64321156550201
 72
     1
 10
-65.01872732238087
 20
22.64321156550201
 11
-65.01872732238087
 21
21.93748391615981
 72
     1
 10
-65.01872732238087
 20
21.93748391615981
 11
-64.70143226083897
 21
21.93748391615981
 97
        4
330
165
330
FD
330
10D
330
FE
 75
     1
 76
     0
 52
45.0
 41
0.1
 77
     0
 78
     1
 53
45.0
 43
0.0
 44
0.0
 45
-0.0707106781186548
 46
0.0707106781186548
 79
     0
 98
        1
 10
0.0
 20
0.0
  0
HATCH
  5
1B5
330
47
100
AcDbEntity
  8
1
  6
Continuous
 62
     2
100
AcDbHatch
 10
0.0
 20
0.0
 30
0.0
210
0.0
220
0.0
230
1.0
  2
_USER
 70
     0
 71
     1
 91
        2
 92
        1
 93
        4
 72
     2
 10
-61.70341698624148
 20
17.88164716255912
 40
2.065479772208568
 50
62.45185182430637
 51
117.5481481756666
 73
     1
 72
     2
 10
-61.98435687807478
 20
18.42022217286191
 40
1.458034083651496
 50
117.5481481756626
 51
242.4518518243373
 73
     1
 72
     2
 10
-61.70341698624148
 20
18.95879718316522
 40
2.065479772208518
 50
242.4518518243401
 51
297.548148175687
 73
     1
 72
     2
 10
-61.42247709440818
 20
18.42022217286191
 40
1.458034083652003
 50
297.548148175701
 51
422.451851824299
 73
     1
 97
        4
330
15D
330
15C
330
15E
330
15B
 92
       16
 93
        4
 72
     2
 10
-61.90315702258789
 20
18.42022217286191
 40
0.7717997786796947
 50
321.8795802028417
 51
398.1204197971537
 73
     1
 72
     2
 10
-61.70341698624148
 20
18.57695335098242
 40
0.5179085730133021
 50
38.12041979714734
 51
141.8795802028585
 73
     1
 72
     2
 10
-61.50367694989538
 20
18.42022217286191
 40
0.7717997786794676
 50
141.8795802028359
 51
218.1204197971687
 73
     1
 72
     2
 10
-61.70341698624148
 20
18.26349099474192
 40
0.5179085730137419
 50
218.120419797194
 51
321.8795802028001
 73
     1
 97
        4
330
179
330
176
330
177
330
178
 75
     1
 76
     0
 52
45.0
 41
0.1
 77
     0
 78
     1
 53
45.0
 43
0.0
 44
0.0
 45
-0.0707106781186548
 46
0.0707106781186548
 79
     0
 98
        1
 10
0.0
 20
0.0
  0
HATCH
  5
1B6
330
47
100
AcDbEntity
  8
1
  6
Continuous
 62
     2
100
AcDbHatch
 10
0.0
 20
0.0
 30
0.0
210
0.0
220
0.0
230
1.0
  2
_USER
 70
     0
 71
     1
 91
        2
 92
        1
 93
        4
 72
     2
 10
-61.70341698624148
 20
17.88164716255912
 40
2.065479772208568
 50
62.45185182430637
 51
117.5481481756666
 73
     1
 72
     2
 10
-61.98435687807478
 20
18.42022217286191
 40
1.458034083651496
 50
117.5481481756626
 51
242.4518518243373
 73
     1
 72
     2
 10
-61.70341698624148
 20
18.95879718316522
 40
2.065479772208518
 50
242.4518518243401
 51
297.548148175687
 73
     1
 72
     2
 10
-61.42247709440818
 20
18.42022217286191
 40
1.458034083652003
 50
297.548148175701
 51
422.451851824299
 73
     1
 97
        4
330
15D
330
15C
330
15E
330
15B
 92
       16
 93
        4
 72
     2
 10
-61.90315702258789
 20
18.42022217286191
 40
0.7717997786796947
 50
321.8795802028417
 51
398.1204197971537
 73
     1
 72
     2
 10
-61.70341698624148
 20
18.57695335098242
 40
0.5179085730133021
 50
38.12041979714734
 51
141.8795802028585
 73
     1
 72
     2
 10
-61.50367694989538
 20
18.42022217286191
 40
0.7717997786794676
 50
141.8795802028359
 51
218.1204197971687
 73
     1
 72
     2
 10
-61.70341698624148
 20
18.26349099474192
 40
0.5179085730137419
 50
218.120419797194
 51
321.8795802028001
 73
     1
 97
        4
330
179
330
176
330
177
330
178
 75
     1
 76
     0
 52
45.0
 41
0.1
 77
     0
 78
     1
 53
45.0
 43
0.0
 44
0.0
 45
-0.0707106781186548
 46
0.0707106781186548
 79
     0
 98
        1
 10
0.0
 20
0.0
  0
HATCH
  5
1B7
330
47
100
AcDbEntity
  8
1
  6
Continuous
 62
     2
100
AcDbHatch
 10
0.0
 20
0.0
 30
0.0
210
0.0
220
0.0
230
1.0
  2
_USER
 70
     0
 71
     1
 91
        2
 92
        1
 93
       12
 72
     1
 10
-54.80842179183219
 20
22.60830380549913
 11
-56.14434961825987
 21
22.60830380549913
 72
     1
 10
-56.14434961825987
 20
22.60830380549913
 11
-56.14434961825987
 21
22.12841945175742
 72
     1
 10
-56.14434961825987
 20
22.12841945175742
 11
-54.80842179183219
 21
22.12841945175742
 72
     1
 10
-54.80842179183219
 20
22.12841945175742
 11
-54.80842179183219
 21
21.43040584631513
 72
     1
 10
-54.80842179183219
 20
21.43040584631513
 11
-56.14434961825987
 21
21.43040584631513
 72
     1
 10
-56.14434961825987
 20
21.43040584631513
 11
-56.14434961825987
 21
20.95052149257342
 72
     1
 10
-56.14434961825987
 20
20.95052149257342
 11
-54.80842179183219
 21
20.95052149257342
 72
     1
 10
-54.80842179183219
 20
20.95052149257342
 11
-54.80842179183219
 21
20.25250788713092
 72
     1
 10
-54.80842179183219
 20
20.25250788713092
 11
-57.95874151561318
 21
20.25250788713092
 72
     2
 10
-57.95874151561318
 20
21.77941264903623
 40
1.526904761905879
 50
90.0
 51
270.0
 73
     0
 72
     1
 10
-57.95874151561318
 20
23.30631741094211
 11
-54.80842179183219
 21
23.30631741094211
 72
     1
 10
-54.80842179183219
 20
23.30631741094211
 11
-54.80842179183219
 21
22.60830380549913
 97
       12
330
114
330
166
330
115
330
116
330
117
330
118
330
F5
330
F4
330
F3
330
F2
330
119
330
113
 92
       16
 93
        4
 72
     2
 10
-57.74246950544799
 20
21.93614382715671
 40
0.5179085730135343
 50
38.12041979714316
 51
141.8795802028481
 73
     1
 72
     2
 10
-57.54272946910169
 20
21.77941264903623
 40
0.7717997786796724
 50
141.8795802028404
 51
218.1204197971562
 73
     1
 72
     2
 10
-57.74246950544799
 20
21.62268147091581
 40
0.5179085730134337
 50
218.1204197971519
 51
321.8795802028569
 73
     1
 72
     2
 10
-57.94220954179417
 20
21.77941264903623
 40
0.7717997786796373
 50
321.8795802028437
 51
398.1204197971596
 73
     1
 97
        4
330
160
330
15F
330
15A
330
159
 75
     1
 76
     0
 52
45.0
 41
0.1
 77
     0
 78
     1
 53
45.0
 43
0.0
 44
0.0
 45
-0.0707106781186548
 46
0.0707106781186548
 79
     0
 98
        1
 10
0.0
 20
0.0
  0
HATCH
  5
1B8
330
47
100
AcDbEntity
  8
1
  6
Continuous
 62
     2
100
AcDbHatch
 10
0.0
 20
0.0
 30
0.0
210
0.0
220
0.0
230
1.0
  2
_USER
 70
     0
 71
     1
 91
        2
 92
        1
 93
       12
 72
     1
 10
-54.80842179183219
 20
22.60830380549913
 11
-56.14434961825987
 21
22.60830380549913
 72
     1
 10
-56.14434961825987
 20
22.60830380549913
 11
-56.14434961825987
 21
22.12841945175742
 72
     1
 10
-56.14434961825987
 20
22.12841945175742
 11
-54.80842179183219
 21
22.12841945175742
 72
     1
 10
-54.80842179183219
 20
22.12841945175742
 11
-54.80842179183219
 21
21.43040584631513
 72
     1
 10
-54.80842179183219
 20
21.43040584631513
 11
-56.14434961825987
 21
21.43040584631513
 72
     1
 10
-56.14434961825987
 20
21.43040584631513
 11
-56.14434961825987
 21
20.95052149257342
 72
     1
 10
-56.14434961825987
 20
20.95052149257342
 11
-54.80842179183219
 21
20.95052149257342
 72
     1
 10
-54.80842179183219
 20
20.95052149257342
 11
-54.80842179183219
 21
20.25250788713092
 72
     1
 10
-54.80842179183219
 20
20.25250788713092
 11
-57.95874151561318
 21
20.25250788713092
 72
     2
 10
-57.95874151561318
 20
21.77941264903623
 40
1.526904761905879
 50
90.0
 51
270.0
 73
     0
 72
     1
 10
-57.95874151561318
 20
23.30631741094211
 11
-54.80842179183219
 21
23.30631741094211
 72
     1
 10
-54.80842179183219
 20
23.30631741094211
 11
-54.80842179183219
 21
22.60830380549913
 97
       12
330
114
330
166
330
115
330
116
330
117
330
118
330
F5
330
F4
330
F3
330
F2
330
119
330
113
 92
       16
 93
        4
 72
     2
 10
-57.74246950544799
 20
21.93614382715671
 40
0.5179085730135343
 50
38.12041979714316
 51
141.8795802028481
 73
     1
 72
     2
 10
-57.54272946910169
 20
21.77941264903623
 40
0.7717997786796724
 50
141.8795802028404
 51
218.1204197971562
 73
     1
 72
     2
 10
-57.74246950544799
 20
21.62268147091581
 40
0.5179085730134337
 50
218.1204197971519
 51
321.8795802028569
 73
     1
 72
     2
 10
-57.94220954179417
 20
21.77941264903623
 40
0.7717997786796373
 50
321.8795802028437
 51
398.1204197971596
 73
     1
 97
        4
330
160
330
15F
330
15A
330
159
 75
     1
 76
     0
 52
45.0
 41
0.1
 77
     0
 78
     1
 53
45.0
 43
0.0
 44
0.0
 45
-0.0707106781186548
 46
0.0707106781186548
 79
     0
 98
        1
 10
0.0
 20
0.0
  0
HATCH
  5
1B9
330
47
100
AcDbEntity
  8
1
  6
Continuous
 62
     2
100
AcDbHatch
 10
0.0
 20
0.0
 30
0.0
210
0.0
220
0.0
230
1.0
  2
_USER
 70
     0
 71
     1
 91
        4
 92
        1
 93
        8
 72
     1
 10
-66.73634881350179
 20
22.88207279554013
 11
-66.73634881350179
 21
17.31756202633991
 72
     2
 10
-67.16059342888568
 20
17.31756202633991
 40
0.4242446153832802
 50
0.0
 51
90.0
 73
     0
 72
     1
 10
-67.16059342888568
 20
16.89331741095663
 11
-72.63390551960248
 21
16.89331741095663
 72
     2
 10
-72.63390551960248
 20
17.31756202633991
 40
0.4242446153828041
 50
90.0
 51
180.0
 73
     0
 72
     1
 10
-73.05815013498528
 20
17.31756202633991
 11
-73.05815013498528
 21
22.88207279554013
 72
     2
 10
-72.63390551960248
 20
22.88207279554013
 40
0.4242446153837918
 50
180.0
 51
270.0
 73
     0
 72
     1
 10
-72.63390551960248
 20
23.30631741092392
 11
-67.16059342888568
 21
23.30631741092392
 72
     2
 10
-67.16059342888568
 20
22.88207279554013
 40
0.4242446153838841
 50
270.0
 51
360.0
 73
     0
 97
        8
330
108
330
156
330
109
330
161
330
106
330
158
330
107
330
157
 92
       16
 93
        1
 72
     2
 10
-70.01431986908497
 20
20.56319056718462
 40
0.4709789327785074
 50
0.0
 51
360.0
 73
     1
 97
        1
330
17C
 92
       16
 93
        8
 72
     2
 10
-69.46446215632429
 20
19.45404896721621
 40
0.315716923076536
 50
115.3740086783516
 51
180.0
 73
     1
 72
     1
 10
-69.78017907940108
 20
19.45404896721621
 11
-69.78017907940108
 21
18.87219756052113
 72
     2
 10
-69.46446215632429
 20
18.87219756052113
 40
0.315716923076792
 50
180.0
 51
269.8110329574542
 73
     1
 72
     2
 10
-69.45884602101427
 20
20.57503250809012
 40
2.018561131933269
 50
269.8110329575858
 51
450.1889670424142
 73
     1
 72
     2
 10
-69.46446215632429
 20
22.27786745565922
 40
0.3157169230760746
 50
90.18896704254594
 51
180.0
 73
     1
 72
     1
 10
-69.78017907940108
 20
22.27786745565922
 11
-69.78017907940108
 21
21.67233216715243
 72
     2
 10
-69.46446215632429
 20
21.67233216715243
 40
0.315716923076792
 50
180.0
 51
244.6259913216473
 73
     1
 72
     2
 10
-69.99050485441217
 20
20.56319056718462
 40
0.9118481501444557
 50
295.3740086781924
 51
424.6259913218234
 73
     0
 97
        8
330
16E
330
CF
330
16B
330
16C
330
14A
330
CE
330
16D
330
149
 92
       16
 93
       12
 72
     2
 10
-72.04001084285599
 20
17.92158988959022
 40
0.3157169230756836
 50
180.0
 51
270.0
 73
     1
 72
     1
 10
-72.04001084285599
 20
17.60587296651352
 11
-70.56417758184637
 21
17.60587296651352
 72
     2
 10
-70.56417758184637
 20
17.92158988959022
 40
0.3157169230766996
 50
270.0
 51
360.0
 73
     1
 72
     1
 10
-70.24846065876977
 20
17.92158988959022
 11
-70.24846065876977
 21
19.45236082112183
 72
     2
 10
-70.56417758184637
 20
19.45236082112183
 40
0.315716923076593
 50
0.0
 51
64.80558935146027
 73
     1
 72
     2
 10
-70.04159313427138
 20
20.56319056718462
 40
0.9118975235576114
 50
115.1944106485122
 51
244.8055893514717
 73
     0
 72
     2
 10
-70.56417758184637
 20
21.67402031324681
 40
0.3157169230761203
 50
295.1944106485397
 51
360.0
 73
     1
 72
     1
 10
-70.24846065876977
 20
21.67402031324681
 11
-70.24846065876977
 21
22.27804493230732
 72
     2
 10
-70.56417758184637
 20
22.27804493230732
 40
0.315716923076593
 50
0.0
 51
90.0
 73
     1
 72
     1
 10
-70.56417758184637
 20
22.59376185538352
 11
-72.04001084285599
 21
22.59376185538352
 72
     2
 10
-72.04001084285599
 20
22.27804493230732
 40
0.3157169230761987
 50
90.0
 51
180.0
 73
     1
 72
     1
 10
-72.35572776593168
 20
22.27804493230732
 11
-72.35572776593168
 21
17.92158988959022
 97
       12
330
152
330
10A
330
155
330
105
330
162
330
163
330
154
330
104
330
153
330
103
330
164
330
102
 75
     1
 76
     0
 52
45.0
 41
0.1
 77
     0
 78
     1
 53
45.0
 43
0.0
 44
0.0
 45
-0.0707106781186548
 46
0.0707106781186548
 79
     0
 98
        1
 10
0.0
 20
0.0
  0
HATCH
  5
1BA
330
47
100
AcDbEntity
  8
1
  6
Continuous
 62
     2
100
AcDbHatch
 10
0.0
 20
0.0
 30
0.0
210
0.0
220
0.0
230
1.0
  2
_USER
 70
     0
 71
     1
 91
        4
 92
        1
 93
        8
 72
     1
 10
-66.73634881350179
 20
22.88207279554013
 11
-66.73634881350179
 21
17.31756202633991
 72
     2
 10
-67.16059342888568
 20
17.31756202633991
 40
0.4242446153832802
 50
0.0
 51
90.0
 73
     0
 72
     1
 10
-67.16059342888568
 20
16.89331741095663
 11
-72.63390551960248
 21
16.89331741095663
 72
     2
 10
-72.63390551960248
 20
17.31756202633991
 40
0.4242446153828041
 50
90.0
 51
180.0
 73
     0
 72
     1
 10
-73.05815013498528
 20
17.31756202633991
 11
-73.05815013498528
 21
22.88207279554013
 72
     2
 10
-72.63390551960248
 20
22.88207279554013
 40
0.4242446153837918
 50
180.0
 51
270.0
 73
     0
 72
     1
 10
-72.63390551960248
 20
23.30631741092392
 11
-67.16059342888568
 21
23.30631741092392
 72
     2
 10
-67.16059342888568
 20
22.88207279554013
 40
0.4242446153838841
 50
270.0
 51
360.0
 73
     0
 97
        8
330
108
330
156
330
109
330
161
330
106
330
158
330
107
330
157
 92
       16
 93
        1
 72
     2
 10
-70.01431986908497
 20
20.56319056718462
 40
0.4709789327785074
 50
0.0
 51
360.0
 73
     1
 97
        1
330
17C
 92
       16
 93
        8
 72
     2
 10
-69.46446215632429
 20
19.45404896721621
 40
0.315716923076536
 50
115.3740086783516
 51
180.0
 73
     1
 72
     1
 10
-69.78017907940108
 20
19.45404896721621
 11
-69.78017907940108
 21
18.87219756052113
 72
     2
 10
-69.46446215632429
 20
18.87219756052113
 40
0.315716923076792
 50
180.0
 51
269.8110329574542
 73
     1
 72
     2
 10
-69.45884602101427
 20
20.57503250809012
 40
2.018561131933269
 50
269.8110329575858
 51
450.1889670424142
 73
     1
 72
     2
 10
-69.46446215632429
 20
22.27786745565922
 40
0.3157169230760746
 50
90.18896704254594
 51
180.0
 73
     1
 72
     1
 10
-69.78017907940108
 20
22.27786745565922
 11
-69.78017907940108
 21
21.67233216715243
 72
     2
 10
-69.46446215632429
 20
21.67233216715243
 40
0.315716923076792
 50
180.0
 51
244.6259913216473
 73
     1
 72
     2
 10
-69.99050485441217
 20
20.56319056718462
 40
0.9118481501444557
 50
295.3740086781924
 51
424.6259913218234
 73
     0
 97
        8
330
16E
330
CF
330
16B
330
16C
330
14A
330
CE
330
16D
330
149
 92
       16
 93
       12
 72
     2
 10
-72.04001084285599
 20
17.92158988959022
 40
0.3157169230756836
 50
180.0
 51
270.0
 73
     1
 72
     1
 10
-72.04001084285599
 20
17.60587296651352
 11
-70.56417758184637
 21
17.60587296651352
 72
     2
 10
-70.56417758184637
 20
17.92158988959022
 40
0.3157169230766996
 50
270.0
 51
360.0
 73
     1
 72
     1
 10
-70.24846065876977
 20
17.92158988959022
 11
-70.24846065876977
 21
19.45236082112183
 72
     2
 10
-70.56417758184637
 20
19.45236082112183
 40
0.315716923076593
 50
0.0
 51
64.80558935146027
 73
     1
 72
     2
 10
-70.04159313427138
 20
20.56319056718462
 40
0.9118975235576114
 50
115.1944106485122
 51
244.8055893514717
 73
     0
 72
     2
 10
-70.56417758184637
 20
21.67402031324681
 40
0.3157169230761203
 50
295.1944106485397
 51
360.0
 73
     1
 72
     1
 10
-70.24846065876977
 20
21.67402031324681
 11
-70.24846065876977
 21
22.27804493230732
 72
     2
 10
-70.56417758184637
 20
22.27804493230732
 40
0.315716923076593
 50
0.0
 51
90.0
 73
     1
 72
     1
 10
-70.56417758184637
 20
22.59376185538352
 11
-72.04001084285599
 21
22.59376185538352
 72
     2
 10
-72.04001084285599
 20
22.27804493230732
 40
0.3157169230761987
 50
90.0
 51
180.0
 73
     1
 72
     1
 10
-72.35572776593168
 20
22.27804493230732
 11
-72.35572776593168
 21
17.92158988959022
 97
       12
330
152
330
10A
330
155
330
105
330
162
330
163
330
154
330
104
330
153
330
103
330
164
330
102
 75
     1
 76
     0
 52
45.0
 41
0.1
 77
     0
 78
     1
 53
45.0
 43
0.0
 44
0.0
 45
-0.0707106781186548
 46
0.0707106781186548
 79
     0
 98
        1
 10
0.0
 20
0.0
  0
HATCH
  5
1BB
330
47
100
AcDbEntity
  8
1
  6
Continuous
 62
     2
100
AcDbHatch
 10
0.0
 20
0.0
 30
0.0
210
0.0
220
0.0
230
1.0
  2
_USER
 70
     0
 71
     1
 91
        1
 92
        1
 93
       18
 72
     1
 10
-45.14680090428078
 20
19.16186162864412
 11
-45.95789994175416
 21
19.16186162864412
 72
     1
 10
-45.95789994175416
 20
19.16186162864412
 11
-45.95789994175416
 21
16.89331741095663
 72
     1
 10
-45.95789994175416
 20
16.89331741095663
 11
-47.15069264392187
 21
16.89331741095663
 72
     1
 10
-47.15069264392187
 20
16.89331741095663
 11
-47.15069264392187
 21
19.16186162864412
 72
     1
 10
-47.15069264392187
 20
19.16186162864412
 11
-48.25433194348997
 21
19.16186162864412
 72
     2
 10
-48.25433194348997
 20
18.20733862181803
 40
0.9545230068260899
 50
90.0
 51
109.3371432194321
 73
     1
 72
     2
 10
-48.40100194159368
 20
18.62529360220091
 40
0.511580060194421
 50
109.337143219485
 51
151.4785267424214
 73
     1
 72
     2
 10
-48.02364468351229
 20
18.42022217286191
 40
0.9410597353348895
 50
151.4785267423618
 51
208.5214732576697
 73
     1
 72
     2
 10
-48.40100194159368
 20
18.21515074352342
 40
0.5115800601960153
 50
208.521473257687
 51
246.6277221118447
 73
     1
 72
     2
 10
-48.24456190889057
 20
18.57714276223342
 40
0.9059297849852829
 50
246.6277221118178
 51
288.4480761180808
 73
     1
 72
     2
 10
-48.66272964255248
 20
19.83068853827001
 40
2.227384008972744
 50
288.4480761181333
 51
301.9309089499399
 73
     1
 72
     1
 10
-47.48467460052856
 20
17.94033781912023
 11
-47.48467460052856
 21
17.06782081231691
 72
     2
 10
-48.82060251764528
 20
21.73290311811832
 40
4.852596863498824
 50
74.02000874166129
 51
84.84185523036375
 73
     0
 72
     2
 10
-48.53174642290946
 20
18.53301253489673
 40
1.639695123940456
 50
84.84185523032401
 51
164.9381082228987
 73
     0
 72
     2
 10
-48.95087426637107
 20
18.42022217286191
 40
1.205656168393002
 50
164.9381082229043
 51
195.0618917770972
 73
     0
 72
     2
 10
-48.53174642290946
 20
18.30743181082701
 40
1.639695123940221
 50
195.061891777105
 51
270.0
 73
     0
 72
     1
 10
-48.53174642290946
 20
19.94712693476723
 11
-45.14680090428078
 21
19.94712693476771
 72
     1
 10
-45.14680090428078
 20
19.94712693476771
 11
-45.14680090428078
 21
19.16186162864412
 97
       18
330
D1
330
167
330
168
330
150
330
14F
330
135
330
14E
330
14D
330
169
330
14C
330
16A
330
14B
330
136
330
D0
330
D5
330
D4
330
D3
330
D2
 75
     1
 76
     0
 52
45.0
 41
0.1
 77
     0
 78
     1
 53
45.0
 43
0.0
 44
0.0
 45
-0.0707106781186548
 46
0.0707106781186548
 79
     0
 98
        1
 10
0.0
 20
0.0
  0
HATCH
  5
1BC
330
47
100
AcDbEntity
  8
1
  6
Continuous
 62
     2
100
AcDbHatch
 10
0.0
 20
0.0
 30
0.0
210
0.0
220
0.0
230
1.0
  2
_USER
 70
     0
 71
     1
 91
        1
 92
        1
 93
       18
 72
     1
 10
-45.14680090428078
 20
19.16186162864412
 11
-45.95789994175416
 21
19.16186162864412
 72
     1
 10
-45.95789994175416
 20
19.16186162864412
 11
-45.95789994175416
 21
16.89331741095663
 72
     1
 10
-45.95789994175416
 20
16.89331741095663
 11
-47.15069264392187
 21
16.89331741095663
 72
     1
 10
-47.15069264392187
 20
16.89331741095663
 11
-47.15069264392187
 21
19.16186162864412
 72
     1
 10
-47.15069264392187
 20
19.16186162864412
 11
-48.25433194348997
 21
19.16186162864412
 72
     2
 10
-48.25433194348997
 20
18.20733862181803
 40
0.9545230068260899
 50
90.0
 51
109.3371432194321
 73
     1
 72
     2
 10
-48.40100194159368
 20
18.62529360220091
 40
0.511580060194421
 50
109.337143219485
 51
151.4785267424214
 73
     1
 72
     2
 10
-48.02364468351229
 20
18.42022217286191
 40
0.9410597353348895
 50
151.4785267423618
 51
208.5214732576697
 73
     1
 72
     2
 10
-48.40100194159368
 20
18.21515074352342
 40
0.5115800601960153
 50
208.521473257687
 51
246.6277221118447
 73
     1
 72
     2
 10
-48.24456190889057
 20
18.57714276223342
 40
0.9059297849852829
 50
246.6277221118178
 51
288.4480761180808
 73
     1
 72
     2
 10
-48.66272964255248
 20
19.83068853827001
 40
2.227384008972744
 50
288.4480761181333
 51
301.9309089499399
 73
     1
 72
     1
 10
-47.48467460052856
 20
17.94033781912023
 11
-47.48467460052856
 21
17.06782081231691
 72
     2
 10
-48.82060251764528
 20
21.73290311811832
 40
4.852596863498824
 50
74.02000874166129
 51
84.84185523036375
 73
     0
 72
     2
 10
-48.53174642290946
 20
18.53301253489673
 40
1.639695123940456
 50
84.84185523032401
 51
164.9381082228987
 73
     0
 72
     2
 10
-48.95087426637107
 20
18.42022217286191
 40
1.205656168393002
 50
164.9381082229043
 51
195.0618917770972
 73
     0
 72
     2
 10
-48.53174642290946
 20
18.30743181082701
 40
1.639695123940221
 50
195.061891777105
 51
270.0
 73
     0
 72
     1
 10
-48.53174642290946
 20
19.94712693476723
 11
-45.14680090428078
 21
19.94712693476771
 72
     1
 10
-45.14680090428078
 20
19.94712693476771
 11
-45.14680090428078
 21
19.16186162864412
 97
       18
330
D1
330
167
330
168
330
150
330
14F
330
135
330
14E
330
14D
330
169
330
14C
330
16A
330
14B
330
136
330
D0
330
D5
330
D4
330
D3
330
D2
 75
     1
 76
     0
 52
45.0
 41
0.1
 77
     0
 78
     1
 53
45.0
 43
0.0
 44
0.0
 45
-0.0707106781186548
 46
0.0707106781186548
 79
     0
 98
        1
 10
0.0
 20
0.0
  0
HATCH
  5
1BD
330
47
100
AcDbEntity
  8
1
  6
Continuous
 62
     2
100
AcDbHatch
 10
0.0
 20
0.0
 30
0.0
210
0.0
220
0.0
230
1.0
  2
_USER
 70
     0
 71
     1
 91
        1
 92
        1
 93
       14
 72
     2
 10
-64.63444790216238
 20
18.30743181082701
 40
1.639695123940507
 50
84.84185523036236
 51
164.9381082228864
 73
     1
 72
     2
 10
-65.05357574562518
 20
18.42022217286191
 40
1.205656168390944
 50
164.9381082228765
 51
195.0618917770945
 73
     1
 72
     2
 10
-64.63444790216238
 20
18.53301253489673
 40
1.639695123939387
 50
195.0618917770896
 51
275.1581447696395
 73
     1
 72
     2
 10
-64.92330399689828
 20
21.73290311811832
 40
4.852596863498145
 50
275.1581447696249
 51
285.9799912583529
 73
     1
 72
     1
 10
-63.58737607978048
 20
17.06782081231751
 11
-63.58737607978048
 21
17.94033781912071
 72
     2
 10
-64.76543112180536
 20
19.83068853827061
 40
2.227384008972737
 50
58.0690910500408
 51
71.55192388186722
 73
     0
 72
     2
 10
-64.34726338814457
 20
18.57714276223342
 40
0.9059297849849192
 50
71.55192388184147
 51
113.372277888129
 73
     0
 72
     2
 10
-64.50370342084659
 20
18.21515074352342
 40
0.5115800601948034
 50
113.3722778881728
 51
151.4785267423044
 73
     0
 72
     2
 10
-64.12634616276628
 20
18.42022217286191
 40
0.9410597353332545
 50
151.4785267422943
 51
208.5214732577331
 73
     0
 72
     2
 10
-64.50370342084659
 20
18.62529360220091
 40
0.5115800601948811
 50
208.5214732576956
 51
246.627722111801
 73
     0
 72
     2
 10
-64.34726338814457
 20
18.26330158349032
 40
0.9059297849853194
 50
246.6277221118709
 51
288.4480761181466
 73
     0
 72
     2
 10
-64.76543112180536
 20
17.00975580745373
 40
2.227384008973474
 50
288.4480761181328
 51
301.9309089499593
 73
     0
 72
     1
 10
-63.58737607978048
 20
18.90010652660362
 11
-63.58737607978048
 21
19.77262353340691
 72
     2
 10
-64.92330399689828
 20
15.10754122760602
 40
4.852596863498064
 50
74.02000874164737
 51
84.84185523037506
 73
     1
 97
       14
330
16F
330
170
330
171
330
172
330
137
330
148
330
147
330
146
330
173
330
174
330
145
330
175
330
138
330
144
 75
     1
 76
     0
 52
45.0
 41
0.1
 77
     0
 78
     1
 53
45.0
 43
0.0
 44
0.0
 45
-0.0707106781186548
 46
0.0707106781186548
 79
     0
 98
        1
 10
0.0
 20
0.0
  0
HATCH
  5
1BE
330
47
100
AcDbEntity
  8
1
  6
Continuous
 62
     2
100
AcDbHatch
 10
0.0
 20
0.0
 30
0.0
210
0.0
220
0.0
230
1.0
  2
_USER
 70
     0
 71
     1
 91
        1
 92
        1
 93
       14
 72
     2
 10
-64.63444790216238
 20
18.30743181082701
 40
1.639695123940507
 50
84.84185523036236
 51
164.9381082228864
 73
     1
 72
     2
 10
-65.05357574562518
 20
18.42022217286191
 40
1.205656168390944
 50
164.9381082228765
 51
195.0618917770945
 73
     1
 72
     2
 10
-64.63444790216238
 20
18.53301253489673
 40
1.639695123939387
 50
195.0618917770896
 51
275.1581447696395
 73
     1
 72
     2
 10
-64.92330399689828
 20
21.73290311811832
 40
4.852596863498145
 50
275.1581447696249
 51
285.9799912583529
 73
     1
 72
     1
 10
-63.58737607978048
 20
17.06782081231751
 11
-63.58737607978048
 21
17.94033781912071
 72
     2
 10
-64.76543112180536
 20
19.83068853827061
 40
2.227384008972737
 50
58.0690910500408
 51
71.55192388186722
 73
     0
 72
     2
 10
-64.34726338814457
 20
18.57714276223342
 40
0.9059297849849192
 50
71.55192388184147
 51
113.372277888129
 73
     0
 72
     2
 10
-64.50370342084659
 20
18.21515074352342
 40
0.5115800601948034
 50
113.3722778881728
 51
151.4785267423044
 73
     0
 72
     2
 10
-64.12634616276628
 20
18.42022217286191
 40
0.9410597353332545
 50
151.4785267422943
 51
208.5214732577331
 73
     0
 72
     2
 10
-64.50370342084659
 20
18.62529360220091
 40
0.5115800601948811
 50
208.5214732576956
 51
246.627722111801
 73
     0
 72
     2
 10
-64.34726338814457
 20
18.26330158349032
 40
0.9059297849853194
 50
246.6277221118709
 51
288.4480761181466
 73
     0
 72
     2
 10
-64.76543112180536
 20
17.00975580745373
 40
2.227384008973474
 50
288.4480761181328
 51
301.9309089499593
 73
     0
 72
     1
 10
-63.58737607978048
 20
18.90010652660362
 11
-63.58737607978048
 21
19.77262353340691
 72
     2
 10
-64.92330399689828
 20
15.10754122760602
 40
4.852596863498064
 50
74.02000874164737
 51
84.84185523037506
 73
     1
 97
       14
330
16F
330
170
330
171
330
172
330
137
330
148
330
147
330
146
330
173
330
174
330
145
330
175
330
138
330
144
 75
     1
 76
     0
 52
45.0
 41
0.1
 77
     0
 78
     1
 53
45.0
 43
0.0
 44
0.0
 45
-0.0707106781186548
 46
0.0707106781186548
 79
     0
 98
        1
 10
0.0
 20
0.0
  0
ENDBLK
  5
49
330
47
100
AcDbEntity
  8
0
100
AcDbBlockEnd
  0
BLOCK
  5
4B
330
4A
100
AcDbEntity
  8
0
100
AcDbBlockBegin
  2
_punkt
 70
     0
 10
52.24999950520213
 20
9.59981741094032
 30
0.0
  3
_punkt
  1

  0
LINE
  5
1BF
330
4A
100
AcDbEntity
  8
1
  6
Continuous
 62
     2
100
AcDbLine
 10
52.24999950520213
 20
9.59981741094032
 30
0.0
 11
57.24999950520112
 21
9.59981741094032
 31
0.0
  0
LINE
  5
1C0
330
4A
100
AcDbEntity
  8
1
  6
Continuous
 62
     2
100
AcDbLine
 10
52.24999950520213
 20
9.59981741094032
 30
0.0
 11
52.24999950520213
 21
4.5998174109402
 31
0.0
  0
ENDBLK
  5
4C
330
4A
100
AcDbEntity
  8
0
100
AcDbBlockEnd
  0
BLOCK
  5
50
330
4D
100
AcDbEntity
  8
0
100
AcDbBlockBegin
  2
A4I_CS
 70
     0
 10
52.24999950520213
 20
4.5998174109402
 30
0.0
  3
A4I_CS
  1

  0
INSERT
  5
4E
330
4D
100
AcDbEntity
  8
1
100
AcDbBlockReference
  2
_rahmen
 10
52.24999950520213
 20
4.5998174109402
 30
0.0
  0
INSERT
  5
4F
330
4D
100
AcDbEntity
  8
1
100
AcDbBlockReference
  2
_punkt
 10
52.24999950520213
 20
9.59981741094032
 30
0.0
  0
ENDBLK
  5
51
330
4D
100
AcDbEntity
  8
0
100
AcDbBlockEnd
  0
BLOCK
  5
53
330
52
100
AcDbEntity
  8
0
100
AcDbBlockBegin
  2
D-QTC_2_5-TWIN-select__1
 70
     0
 10
-47.77354703716219
 20
68.09184837640288
 30
0.0
  3
D-QTC_2_5-TWIN-select__1
  1

  0
LINE
  5
1C1
330
52
100
AcDbEntity
  8
0
  6
Continuous
 62
     7
100
AcDbLine
 10
23.6735487762306
 20
68.09184837640288
 30
0.0
 11
14.7349249119718
 21
68.12999304291557
 31
0.0
  0
LINE
  5
1C2
330
52
100
AcDbEntity
  8
0
  6
Continuous
 62
     7
100
AcDbLine
 10
24.7735487762306
 20
69.04447632056576
 30
0.0
 11
23.6735487762306
 21
68.09184837640288
 31
0.0
  0
LINE
  5
1C3
330
52
100
AcDbEntity
  8
0
  6
Continuous
 62
     7
100
AcDbLine
 10
-32.03771771204382
 20
110.2253640293668
 30
0.0
 11
-33.13771771204381
 21
109.2727360852039
 31
0.0
  0
LINE
  5
1C4
330
52
100
AcDbEntity
  8
0
  6
Continuous
 62
     7
100
AcDbLine
 10
-28.15662462114659
 20
106.9399254495181
 30
0.0
 11
-28.3436403553003
 21
107.4363991899387
 31
0.0
  0
LINE
  5
1C5
330
52
100
AcDbEntity
  8
0
  6
Continuous
 62
     7
100
AcDbLine
 10
-29.25662462114661
 20
105.9872975053552
 30
0.0
 11
-29.44364035530029
 21
106.4837712457758
 31
0.0
  0
LINE
  5
1C6
330
52
100
AcDbEntity
  8
0
  6
Continuous
 62
     7
100
AcDbLine
 10
-33.13771771204381
 20
109.2727360852039
 30
0.0
 11
-29.44364035530029
 21
106.4837712457758
 31
0.0
  0
LINE
  5
1C7
330
52
100
AcDbEntity
  8
0
  6
Continuous
 62
     7
100
AcDbLine
 10
-29.25662462114661
 20
105.9872975053552
 30
0.0
 11
-28.15662462114659
 21
106.9399254495181
 31
0.0
  0
LINE
  5
1C8
330
52
100
AcDbEntity
  8
0
  6
Continuous
 62
     7
100
AcDbLine
 10
-28.3436403553003
 20
107.4363991899387
 30
0.0
 11
-29.44364035530029
 21
106.4837712457758
 31
0.0
  0
LINE
  5
1C9
330
52
100
AcDbEntity
  8
0
  6
Continuous
 62
     7
100
AcDbLine
 10
-32.03771771204382
 20
110.2253640293668
 30
0.0
 11
-28.3436403553003
 21
107.4363991899387
 31
0.0
  0
LINE
  5
1CA
330
52
100
AcDbEntity
  8
0
  6
Continuous
 62
     7
100
AcDbLine
 10
-46.12237919969562
 20
113.0210849878199
 30
0.0
 11
-47.7735470371461
 21
107.3354938243539
 31
0.0
  0
LINE
  5
1CB
330
52
100
AcDbEntity
  8
0
  6
Continuous
 62
     7
100
AcDbLine
 10
-47.7735470371461
 20
107.3354938243539
 30
0.0
 11
-47.7735470371486
 21
100.8970664604326
 31
0.0
  0
LINE
  5
1CC
330
52
100
AcDbEntity
  8
0
  6
Continuous
 62
     7
100
AcDbLine
 10
-47.77354703716219
 20
93.10283782641464
 30
0.0
 11
-47.77354703716219
 21
86.17463459614792
 31
0.0
  0
LINE
  5
1CD
330
52
100
AcDbEntity
  8
0
  6
Continuous
 62
     7
100
AcDbLine
 10
-45.02237919969559
 20
113.9737129319827
 30
0.0
 11
-46.12237919969562
 21
113.0210849878199
 31
0.0
  0
LINE
  5
1CE
330
52
100
AcDbEntity
  8
0
  6
Continuous
 62
     7
100
AcDbLine
 10
-33.13771771204381
 20
109.2727360852039
 30
0.0
 11
-46.12237919969562
 21
113.0210849878199
 31
0.0
  0
LINE
  5
1CF
330
52
100
AcDbEntity
  8
0
  6
Continuous
 62
     7
100
AcDbLine
 10
-32.03771771204382
 20
110.2253640293668
 30
0.0
 11
-45.02237919969559
 21
113.9737129319827
 31
0.0
  0
LINE
  5
1D0
330
52
100
AcDbEntity
  8
0
  6
Continuous
 62
     7
100
AcDbLine
 10
23.6735487750708
 20
86.71049382429524
 30
0.0
 11
22.02238093760431
 21
93.34938718325358
 31
0.0
  0
LINE
  5
1D1
330
52
100
AcDbEntity
  8
0
  6
Continuous
 62
     7
100
AcDbLine
 10
23.12238093760431
 20
94.30201512741647
 30
0.0
 11
22.02238093760431
 21
93.34938718325358
 31
0.0
  0
LINE
  5
1D2
330
52
100
AcDbEntity
  8
0
  6
Continuous
 62
     7
100
AcDbLine
 10
24.77354877507091
 20
87.66312176845814
 30
0.0
 11
23.12238093760431
 21
94.30201512741647
 31
0.0
  0
LINE
  5
1D3
330
52
100
AcDbEntity
  8
0
  6
Continuous
 62
     7
100
AcDbLine
 10
-7.09618608419712
 20
103.0253640296973
 30
0.0
 11
-10.21497372859801
 21
102.4713659099747
 31
0.0
  0
LINE
  5
1D4
330
52
100
AcDbEntity
  8
0
  6
Continuous
 62
     7
100
AcDbLine
 10
-7.09618608419712
 20
103.0253640296973
 30
0.0
 11
-8.19618608419711
 21
102.0727360855345
 31
0.0
  0
LINE
  5
1D5
330
52
100
AcDbEntity
  8
0
  6
Continuous
 62
     7
100
AcDbLine
 10
-11.31497372859801
 20
101.5187379658118
 30
0.0
 11
-11.31497372859801
 21
100.8079890190956
 31
0.0
  0
LINE
  5
1D6
330
52
100
AcDbEntity
  8
0
  6
Continuous
 62
     7
100
AcDbLine
 10
-8.19618608419711
 20
102.0727360855345
 30
0.0
 11
-11.31497372859801
 21
101.5187379658118
 31
0.0
  0
LINE
  5
1D7
330
52
100
AcDbEntity
  8
0
  6
Continuous
 62
     7
100
AcDbLine
 10
-11.31497372859801
 20
100.8079890190956
 30
0.0
 11
-29.25662462114661
 21
105.9872975053552
 31
0.0
  0
LINE
  5
1D8
330
52
100
AcDbEntity
  8
0
  6
Continuous
 62
     7
100
AcDbLine
 10
-10.21497372859801
 20
102.4713659099747
 30
0.0
 11
-11.31497372859801
 21
101.5187379658118
 31
0.0
  0
LINE
  5
1D9
330
52
100
AcDbEntity
  8
0
  6
Continuous
 62
     7
100
AcDbLine
 10
-28.15662462114659
 20
106.9399254495181
 30
0.0
 11
-10.83050037216719
 21
101.9383041999376
 31
0.0
  0
LINE
  5
1DA
330
52
100
AcDbEntity
  8
0
  6
Continuous
 62
     7
100
AcDbLine
 10
22.02238093760431
 20
93.34938718325358
 30
0.0
 11
-8.19618608419711
 21
102.0727360855345
 31
0.0
  0
LINE
  5
1DB
330
52
100
AcDbEntity
  8
0
  6
Continuous
 62
     7
100
AcDbLine
 10
23.12238093760431
 20
94.30201512741647
 30
0.0
 11
-7.09618608419712
 21
103.0253640296973
 31
0.0
  0
LINE
  5
1DC
330
52
100
AcDbEntity
  8
0
  6
Continuous
 62
     7
100
AcDbLine
 10
23.6735487750708
 20
80.27206646047745
 30
0.0
 11
23.6735487750708
 21
86.71049382429524
 31
0.0
  0
LINE
  5
1DD
330
52
100
AcDbEntity
  8
0
  6
Continuous
 62
     7
100
AcDbLine
 10
24.77354877507091
 20
87.66312176845814
 30
0.0
 11
23.6735487750708
 21
86.71049382429524
 31
0.0
  0
LINE
  5
1DE
330
52
100
AcDbEntity
  8
0
  6
Continuous
 62
     7
100
AcDbLine
 10
24.77354877507091
 20
81.22469440464033
 30
0.0
 11
23.6735487750708
 21
80.27206646047745
 31
0.0
  0
LINE
  5
1DF
330
52
100
AcDbEntity
  8
0
  6
Continuous
 62
     7
100
AcDbLine
 10
24.77354877507091
 20
81.22469440464033
 30
0.0
 11
24.77354877507091
 21
87.66312176845814
 31
0.0
  0
LINE
  5
1E0
330
52
100
AcDbEntity
  8
0
  6
Continuous
 62
     7
100
AcDbLine
 10
24.7735487762306
 20
69.04447632056576
 30
0.0
 11
24.7735487762306
 21
70.83238955623484
 31
0.0
  0
LINE
  5
1E1
330
52
100
AcDbEntity
  8
0
  6
Continuous
 62
     7
100
AcDbLine
 10
23.6735487762306
 20
68.09184837640288
 30
0.0
 11
23.6735487762306
 21
69.87976161207195
 31
0.0
  0
LINE
  5
1E2
330
52
100
AcDbEntity
  8
0
  6
Continuous
 62
     7
100
AcDbLine
 10
24.7735487762306
 20
70.83238955623484
 30
0.0
 11
23.6735487762306
 21
69.87976161207195
 31
0.0
  0
LINE
  5
1E3
330
52
100
AcDbEntity
  8
0
  6
Continuous
 62
     7
100
AcDbLine
 10
-47.77354703716219
 20
86.17463459614792
 30
0.0
 11
14.7349249119718
 21
68.12999304291557
 31
0.0
  0
SPLINE
  5
1E4
330
52
100
AcDbEntity
  8
0
  6
Continuous
 62
     7
100
AcDbSpline
210
0.0
220
0.0
230
1.0
 70
     8
 71
     3
 72
    11
 73
     7
 74
     5
 42
0.000000001
 43
0.0000000001
 44
0.00000001
 40
0.0
 40
0.0
 40
0.0
 40
0.0
 40
1.851422095553621
 40
3.785240840641434
 40
5.805674702621168
 40
7.908935340317159
 40
7.908935340317159
 40
7.908935340317159
 40
7.908935340317159
 10
-47.77354703716219
 20
93.10283782641464
 30
0.0
 10
-47.60270534502865
 20
93.6975539207913
 30
0.0
 10
-47.25341874807332
 20
94.91345366667764
 30
0.0
 10
-47.13208548296221
 20
96.8570967086485
 30
0.0
 10
-47.2700464883227
 20
98.87944492202385
 30
0.0
 10
-47.60348110724646
 20
100.2155802663558
 30
0.0
 10
-47.7735470371486
 20
100.8970664604326
 30
0.0
 11
-47.77354703716219
 21
93.10283782641464
 31
0.0
 11
-47.32565799978133
 21
94.89926739370337
 31
0.0
 11
-47.17519971178851
 21
96.82722414873786
 31
0.0
 11
-47.32565799977446
 21
98.84204803684534
 31
0.0
 11
-47.7735470371486
 21
100.8970664604326
 31
0.0
  0
SPLINE
  5
1E5
330
52
100
AcDbEntity
  8
0
  6
Continuous
 62
     7
100
AcDbSpline
210
0.0
220
0.0
230
1.0
 70
     8
 71
     3
 72
    13
 73
     9
 74
     7
 42
0.000000001
 43
0.0000000001
 44
0.00000001
 40
0.0
 40
0.0
 40
0.0
 40
0.0
 40
1.618800876080228
 40
3.296662961560567
 40
5.042045808265084
 40
6.857713223239619
 40
8.741157517140579
 40
10.68531582527216
 40
10.68531582527216
 40
10.68531582527216
 40
10.68531582527216
 10
23.6735487750708
 20
80.27206646047745
 30
0.0
 10
23.45664208799609
 20
79.77664575818086
 30
0.0
 10
23.01491498624061
 20
78.76772915050064
 30
0.0
 10
22.66929308043485
 20
77.11201362776488
 30
0.0
 10
22.54684083526856
 20
75.36558433610452
 30
0.0
 10
22.67775376277573
 20
73.5504193346215
 30
0.0
 10
23.03474499565057
 20
71.69687097850623
 30
0.0
 10
23.45837428730922
 20
70.49183621424427
 30
0.0
 10
23.6735487762306
 20
69.87976161207195
 30
0.0
 11
23.6735487750708
 21
80.27206646047745
 31
0.0
 11
23.07485032432719
 21
78.76804636518554
 31
0.0
 11
22.71107213361731
 21
77.13009440822117
 31
0.0
 11
22.58904868970663
 21
75.38898224443163
 31
0.0
 11
22.71107213401375
 21
73.57741981236566
 31
0.0
 11
23.07485032511268
 21
71.72944041903853
 31
0.0
 11
23.6735487762306
 21
69.87976161207195
 31
0.0
  0
SPLINE
  5
1E6
330
52
100
AcDbEntity
  8
0
  6
Continuous
 62
     7
100
AcDbSpline
210
0.0
220
0.0
230
1.0
 70
     8
 71
     3
 72
    13
 73
     9
 74
     7
 42
0.000000001
 43
0.0000000001
 44
0.00000001
 40
0.0
 40
0.0
 40
0.0
 40
0.0
 40
1.618800876080261
 40
3.296662961560591
 40
5.042045808265093
 40
6.857713223239656
 40
8.741157517140616
 40
10.68531582527219
 40
10.68531582527219
 40
10.68531582527219
 40
10.68531582527219
 10
24.77354877507091
 20
81.22469440464033
 30
0.0
 10
24.55664208799617
 20
80.72927370234375
 30
0.0
 10
24.11491498624062
 20
79.72035709466354
 30
0.0
 10
23.76929308043484
 20
78.06464157192778
 30
0.0
 10
23.64684083526857
 20
76.3182122802674
 30
0.0
 10
23.77775376277574
 20
74.50304727878442
 30
0.0
 10
24.13474499565056
 20
72.64949892266908
 30
0.0
 10
24.55837428730923
 20
71.4444641584072
 30
0.0
 10
24.7735487762306
 20
70.83238955623484
 30
0.0
 11
24.77354877507091
 21
81.22469440464033
 31
0.0
 11
24.17485032432721
 21
79.72067430934842
 31
0.0
 11
23.81107213361731
 21
78.08272235238407
 31
0.0
 11
23.68904868970664
 21
76.34161018859454
 31
0.0
 11
23.81107213401376
 21
74.53004775652855
 31
0.0
 11
24.17485032511269
 21
72.68206836320141
 31
0.0
 11
24.7735487762306
 21
70.83238955623484
 31
0.0
  0
ENDBLK
  5
54
330
52
100
AcDbEntity
  8
0
100
AcDbBlockEnd
  0
BLOCK
  5
57
330
55
100
AcDbEntity
  8
0
100
AcDbBlockBegin
  2
AllgSicht1
 70
     0
 10
-11.5000000000006
 20
90.0
 30
0.0
  3
AllgSicht1
  1

  0
INSERT
  5
56
330
55
100
AcDbEntity
  8
0
100
AcDbBlockReference
  2
D-QTC_2_5-TWIN-select__1
 10
-47.77354703716219
 20
68.09184837640288
 30
0.0
  0
MTEXT
  5
1E7
330
55
100
AcDbEntity
  8
1
 62
     6
100
AcDbMText
 10
-11.50000000000023
 20
60.54963498382813
 30
0.0
 40
5.0
 41
0.0
 71
     2
 72
     1
  1
 
  7
CONVERTER_11
 73
     1
 44
1.32052821128451
  0
ENDBLK
  5
58
330
55
100
AcDbEntity
  8
0
100
AcDbBlockEnd
  0
BLOCK
  5
5A
330
59
100
AcDbEntity
  8
0
100
AcDbBlockBegin
  2
D-QTC_2_5-TWIN-select__2
 70
     0
 10
-174.2499990103702
 20
91.90000002384187
 30
0.0
  3
D-QTC_2_5-TWIN-select__2
  1

  0
LINE
  5
1E8
330
59
100
AcDbEntity
  8
0
  6
Continuous
 62
     7
100
AcDbLine
 10
-172.3433946195089
 20
94.10000002384189
 30
0.0
 11
-172.3433946195089
 21
91.90000002384187
 31
0.0
  0
LINE
  5
1E9
330
59
100
AcDbEntity
  8
0
  6
Continuous
 62
     7
100
AcDbLine
 10
-174.2499990103702
 20
94.10000002384189
 30
0.0
 11
-174.2499990103702
 21
91.90000002384187
 31
0.0
  0
LINE
  5
1EA
330
59
100
AcDbEntity
  8
0
  6
Continuous
 62
     7
100
AcDbLine
 10
-91.74999901036932
 20
91.90000002384187
 30
0.0
 11
-93.6566034012438
 21
91.90000002384187
 31
0.0
  0
LINE
  5
1EB
330
59
100
AcDbEntity
  8
0
  6
Continuous
 62
     7
100
AcDbLine
 10
-128.5499990103673
 20
91.90000002384187
 30
0.0
 11
-132.1512647824486
 21
91.90000002384187
 31
0.0
  0
LINE
  5
1EC
330
59
100
AcDbEntity
  8
0
  6
Continuous
 62
     7
100
AcDbLine
 10
-172.3433946195089
 20
91.90000002384187
 30
0.0
 11
-174.2499990103702
 21
91.90000002384187
 31
0.0
  0
LINE
  5
1ED
330
59
100
AcDbEntity
  8
0
  6
Continuous
 62
     7
100
AcDbLine
 10
-157.3499990090451
 20
91.90000002384187
 30
0.0
 11
-172.3433946195089
 21
91.90000002384187
 31
0.0
  0
LINE
  5
1EE
330
59
100
AcDbEntity
  8
0
  6
Continuous
 62
     7
100
AcDbLine
 10
-157.3499990090451
 20
91.90000002384187
 30
0.0
 11
-153.0844458963994
 21
91.90000002384187
 31
0.0
  0
LINE
  5
1EF
330
59
100
AcDbEntity
  8
0
  6
Continuous
 62
     7
100
AcDbLine
 10
-172.3433946195089
 20
94.10000002384189
 30
0.0
 11
-174.2499990103702
 21
94.10000002384189
 31
0.0
  0
LINE
  5
1F0
330
59
100
AcDbEntity
  8
0
  6
Continuous
 62
     7
100
AcDbLine
 10
-157.3499990090451
 20
94.10000002384189
 30
0.0
 11
-172.3433946195089
 21
94.10000002384189
 31
0.0
  0
LINE
  5
1F1
330
59
100
AcDbEntity
  8
0
  6
Continuous
 62
     7
100
AcDbLine
 10
-157.3499990090451
 20
94.10000002384189
 30
0.0
 11
-153.0844458963994
 21
94.10000002384189
 31
0.0
  0
LINE
  5
1F2
330
59
100
AcDbEntity
  8
0
  6
Continuous
 62
     7
100
AcDbLine
 10
-91.74999901036932
 20
94.10000002384189
 30
0.0
 11
-93.6566034012438
 21
94.10000002384189
 31
0.0
  0
LINE
  5
1F3
330
59
100
AcDbEntity
  8
0
  6
Continuous
 62
     7
100
AcDbLine
 10
-128.5499990103673
 20
94.10000002384189
 30
0.0
 11
-132.1512647824486
 21
94.10000002384189
 31
0.0
  0
LINE
  5
1F4
330
59
100
AcDbEntity
  8
0
  6
Continuous
 62
     7
100
AcDbLine
 10
-152.868498727487
 20
94.10000002384189
 30
0.0
 11
-153.0844458963994
 21
94.10000002384189
 31
0.0
  0
LINE
  5
1F5
330
59
100
AcDbEntity
  8
0
  6
Continuous
 62
     7
100
AcDbLine
 10
-152.868498727487
 20
94.10000002384189
 30
0.0
 11
-132.1512647824486
 21
94.10000002384189
 31
0.0
  0
LINE
  5
1F6
330
59
100
AcDbEntity
  8
0
  6
Continuous
 62
     7
100
AcDbLine
 10
-157.3499990090451
 20
94.10000002384189
 30
0.0
 11
-157.3499990090451
 21
91.90000002384187
 31
0.0
  0
LINE
  5
1F7
330
59
100
AcDbEntity
  8
0
  6
Continuous
 62
     7
100
AcDbLine
 10
-152.868498727487
 20
91.90000002384187
 30
0.0
 11
-153.0844458963994
 21
91.90000002384187
 31
0.0
  0
LINE
  5
1F8
330
59
100
AcDbEntity
  8
0
  6
Continuous
 62
     7
100
AcDbLine
 10
-132.1512647824486
 20
91.90000002384187
 30
0.0
 11
-152.868498727487
 21
91.90000002384187
 31
0.0
  0
LINE
  5
1F9
330
59
100
AcDbEntity
  8
0
  6
Continuous
 62
     7
100
AcDbLine
 10
-153.0844458963994
 20
94.10000002384189
 30
0.0
 11
-153.0844458963994
 21
91.90000002384187
 31
0.0
  0
LINE
  5
1FA
330
59
100
AcDbEntity
  8
0
  6
Continuous
 62
     7
100
AcDbLine
 10
-93.6566034012438
 20
94.10000002384189
 30
0.0
 11
-93.6566034012438
 21
91.90000002384187
 31
0.0
  0
LINE
  5
1FB
330
59
100
AcDbEntity
  8
0
  6
Continuous
 62
     7
100
AcDbLine
 10
-128.5499990103673
 20
94.10000002384189
 30
0.0
 11
-128.5499990103673
 21
91.90000002384187
 31
0.0
  0
LINE
  5
1FC
330
59
100
AcDbEntity
  8
0
  6
Continuous
 62
     7
100
AcDbLine
 10
-132.1512647824486
 20
94.10000002384189
 30
0.0
 11
-132.1512647824486
 21
91.90000002384187
 31
0.0
  0
LINE
  5
1FD
330
59
100
AcDbEntity
  8
0
  6
Continuous
 62
     7
100
AcDbLine
 10
-93.6566034012438
 20
91.90000002384187
 30
0.0
 11
-128.5499990103673
 21
91.90000002384187
 31
0.0
  0
LINE
  5
1FE
330
59
100
AcDbEntity
  8
0
  6
Continuous
 62
     7
100
AcDbLine
 10
-91.74999901036932
 20
94.10000002384189
 30
0.0
 11
-91.74999901036932
 21
91.90000002384187
 31
0.0
  0
LINE
  5
1FF
330
59
100
AcDbEntity
  8
0
  6
Continuous
 62
     7
100
AcDbLine
 10
-152.868498727487
 20
91.90000002384187
 30
0.0
 11
-152.868498727487
 21
94.10000002384189
 31
0.0
  0
LINE
  5
200
330
59
100
AcDbEntity
  8
0
  6
Continuous
 62
     7
100
AcDbLine
 10
-93.6566034012438
 20
94.10000002384189
 30
0.0
 11
-128.5499990103673
 21
94.10000002384189
 31
0.0
  0
ENDBLK
  5
5B
330
59
100
AcDbEntity
  8
0
100
AcDbBlockEnd
  0
BLOCK
  5
5E
330
5C
100
AcDbEntity
  8
0
100
AcDbBlockBegin
  2
Drfsicht1
 70
     0
 10
-133.0
 20
93.00000000000003
 30
0.0
  3
Drfsicht1
  1

  0
INSERT
  5
5D
330
5C
100
AcDbEntity
  8
0
100
AcDbBlockReference
  2
D-QTC_2_5-TWIN-select__2
 10
-174.2499990103702
 20
91.90000002384187
 30
0.0
  0
MTEXT
  5
201
330
5C
100
AcDbEntity
  8
1
 62
     6
100
AcDbMText
 10
-133.0
 20
86.89999997615814
 30
0.0
 40
5.0
 41
0.0
 71
     2
 72
     1
  1
 
  7
CONVERTER_11
 73
     1
 44
1.32052821128451
  0
DIMENSION
  5
20E
330
5C
100
AcDbEntity
  8
1
100
AcDbDimension
  2
*D17
 10
-184.2499990103702
 20
91.90000002384187
 30
0.0
 11
-187.6749990103702
 21
103.538389017017
 31
0.0
 70
    32
  1
<>
 71
     5
 42
-1.0
 53
90.0
  3
ME10_DIM_10
100
AcDbAlignedDimension
 13
-174.2499990103702
 23
94.10000002384189
 33
0.0
 14
-174.2499990103702
 24
91.90000002384187
 34
0.0
 50
90.0
100
AcDbRotatedDimension
  0
ENDBLK
  5
5F
330
5C
100
AcDbEntity
  8
0
100
AcDbBlockEnd
  0
BLOCK
  5
61
330
60
100
AcDbEntity
  8
0
100
AcDbBlockBegin
  2
D-QTC_2_5-TWIN-select__3
 70
     0
 10
-52.75000099095045
 20
132.0999998380348
 30
0.0
  3
D-QTC_2_5-TWIN-select__3
  1

  0
LINE
  5
20F
330
60
100
AcDbEntity
  8
0
  6
Continuous
 62
     7
100
AcDbLine
 10
-50.84339659874415
 20
163.6499998380226
 30
0.0
 11
-15.95000098962063
 21
163.6499998380358
 31
0.0
  0
LINE
  5
210
330
60
100
AcDbEntity
  8
0
  6
Continuous
 62
     7
100
AcDbLine
 10
-52.75000098961863
 20
156.5344553813457
 30
0.0
 11
-50.84339659874415
 21
163.6499998380226
 31
0.0
  0
LINE
  5
211
330
60
100
AcDbEntity
  8
0
  6
Continuous
 62
     7
100
AcDbLine
 10
-15.95000098962063
 20
163.6499998380358
 30
0.0
 11
-12.34873521753968
 21
161.9707020294653
 31
0.0
  0
LINE
  5
212
330
60
100
AcDbEntity
  8
0
  6
Continuous
 62
     7
100
AcDbLine
 10
29.74999901038228
 20
156.5344553814444
 30
0.0
 11
29.74999901038792
 21
149.099999838008
 31
0.0
  0
LINE
  5
213
330
60
100
AcDbEntity
  8
0
  6
Continuous
 62
     7
100
AcDbLine
 10
27.84339461952096
 20
163.6499998380524
 30
0.0
 11
29.74999901038228
 21
156.5344553814444
 31
0.0
  0
LINE
  5
214
330
60
100
AcDbEntity
  8
0
  6
Continuous
 62
     7
100
AcDbLine
 10
8.36849872749904
 20
161.1499998380475
 30
0.0
 11
-12.34873521753937
 21
161.1499998380397
 31
0.0
  0
LINE
  5
215
330
60
100
AcDbEntity
  8
0
  6
Continuous
 62
     7
100
AcDbLine
 10
8.36849872749904
 20
161.1499998380475
 30
0.0
 11
8.5844458964115
 21
161.6609397553512
 31
0.0
  0
LINE
  5
216
330
60
100
AcDbEntity
  8
0
  6
Continuous
 62
     7
100
AcDbLine
 10
12.84999900905713
 20
163.6499998380467
 30
0.0
 11
8.5844458964115
 21
161.6609397553512
 31
0.0
  0
LINE
  5
217
330
60
100
AcDbEntity
  8
0
  6
Continuous
 62
     7
100
AcDbLine
 10
12.84999900905713
 20
163.6499998380467
 30
0.0
 11
27.84339461952096
 21
163.6499998380524
 31
0.0
  0
LINE
  5
218
330
60
100
AcDbEntity
  8
0
  6
Continuous
 62
     7
100
AcDbLine
 10
-12.34873521753968
 20
161.9707020294653
 30
0.0
 11
-12.34873521753937
 21
161.1499998380397
 31
0.0
  0
LINE
  5
219
330
60
100
AcDbEntity
  8
0
  6
Continuous
 62
     7
100
AcDbLine
 10
-52.75000098961581
 20
149.0999998380296
 30
0.0
 11
-52.75000098961863
 21
156.5344553813457
 31
0.0
  0
LINE
  5
21A
330
60
100
AcDbEntity
  8
0
  6
Continuous
 62
     7
100
AcDbLine
 10
-52.75000099094967
 20
135.0354954591586
 30
0.0
 11
-52.75000099095045
 21
137.0999998349611
 31
0.0
  0
LINE
  5
21B
330
60
100
AcDbEntity
  8
0
  6
Continuous
 62
     7
100
AcDbLine
 10
29.74999901040704
 20
140.099999838052
 30
0.0
 11
29.74999901041007
 21
132.0999998380621
 31
0.0
  0
LINE
  5
21C
330
60
100
AcDbEntity
  8
0
  6
Continuous
 62
     7
100
AcDbLine
 10
29.74999901041007
 20
132.0999998380621
 30
0.0
 11
-42.4285672025193
 21
132.0999998380348
 31
0.0
  0
LINE
  5
21D
330
60
100
AcDbEntity
  8
0
  6
Continuous
 62
     7
100
AcDbLine
 10
-52.75000099094967
 20
135.0354954591586
 30
0.0
 11
-42.4285672025193
 21
132.0999998380348
 31
0.0
  0
ARC
  5
21E
330
60
100
AcDbEntity
  8
0
  6
Continuous
 62
     7
100
AcDbCircle
 10
-66.49772807448105
 20
143.0999998380244
 30
0.0
 40
15.00000000000001
100
AcDbArc
 50
336.4218215090315
 51
23.57817847822353
  0
ARC
  5
21F
330
60
100
AcDbEntity
  8
0
  6
Continuous
 62
     7
100
AcDbCircle
 10
44.05908703165856
 20
144.5999998380604
 30
0.0
 40
14.99999999999997
100
AcDbArc
 50
162.5423968764877
 51
197.4576031237557
  0
ENDBLK
  5
62
330
60
100
AcDbEntity
  8
0
100
AcDbBlockEnd
  0
BLOCK
  5
65
330
63
100
AcDbEntity
  8
0
100
AcDbBlockBegin
  2
Rckans1
 70
     0
 10
-11.49999999998795
 20
147.8750003576536
 30
0.0
  3
Rckans1
  1

  0
INSERT
  5
64
330
63
100
AcDbEntity
  8
0
100
AcDbBlockReference
  2
D-QTC_2_5-TWIN-select__3
 10
-52.75000099095045
 20
132.0999998380348
 30
0.0
  0
MTEXT
  5
220
330
63
100
AcDbEntity
  8
1
 62
     6
100
AcDbMText
 10
-11.49999999998795
 20
127.100000023852
 30
0.0
 40
5.0
 41
0.0
 71
     2
 72
     1
  1
 
  7
CONVERTER_11
 73
     1
 44
1.32052821128451
  0
ENDBLK
  5
66
330
63
100
AcDbEntity
  8
0
100
AcDbBlockEnd
  0
BLOCK
  5
68
330
67
100
AcDbEntity
  8
0
100
AcDbBlockBegin
  2
D-QTC_2_5-TWIN-select__4
 70
     0
 10
-75.85000002383657
 20
132.0999998380622
 30
0.0
  3
D-QTC_2_5-TWIN-select__4
  1

  0
LINE
  5
221
330
67
100
AcDbEntity
  8
0
  6
Continuous
 62
     7
100
AcDbLine
 10
-75.85000002383657
 20
163.6499998380358
 30
0.0
 11
-75.85000002383657
 21
156.5344553814445
 31
0.0
  0
LINE
  5
222
330
67
100
AcDbEntity
  8
0
  6
Continuous
 62
     7
100
AcDbLine
 10
-75.85000002383657
 20
163.6499998380358
 30
0.0
 11
-73.65000002383655
 21
163.6499998380358
 31
0.0
  0
LINE
  5
223
330
67
100
AcDbEntity
  8
0
  6
Continuous
 62
     7
100
AcDbLine
 10
-73.65000002383655
 20
163.6499998380358
 30
0.0
 11
-73.65000002383655
 21
156.5344553814445
 31
0.0
  0
LINE
  5
224
330
67
100
AcDbEntity
  8
0
  6
Continuous
 62
     7
100
AcDbLine
 10
-73.65000002383655
 20
156.5344553814445
 30
0.0
 11
-73.65000002383655
 21
149.0999998380081
 31
0.0
  0
LINE
  5
225
330
67
100
AcDbEntity
  8
0
  6
Continuous
 62
     7
100
AcDbLine
 10
-75.85000002383657
 20
140.099999838052
 30
0.0
 11
-75.85000002383657
 21
132.0999998380622
 31
0.0
  0
LINE
  5
226
330
67
100
AcDbEntity
  8
0
  6
Continuous
 62
     7
100
AcDbLine
 10
-75.85000002383657
 20
156.5344553814445
 30
0.0
 11
-75.85000002383657
 21
149.0999998380081
 31
0.0
  0
LINE
  5
227
330
67
100
AcDbEntity
  8
0
  6
Continuous
 62
     7
100
AcDbLine
 10
-75.85000002383657
 20
140.099999838052
 30
0.0
 11
-75.85000002383657
 21
149.0999998380081
 31
0.0
  0
LINE
  5
228
330
67
100
AcDbEntity
  8
0
  6
Continuous
 62
     7
100
AcDbLine
 10
-75.85000002383657
 20
156.5344553814445
 30
0.0
 11
-73.65000002383655
 21
156.5344553814445
 31
0.0
  0
LINE
  5
229
330
67
100
AcDbEntity
  8
0
  6
Continuous
 62
     7
100
AcDbLine
 10
-75.85000002383657
 20
132.0999998380622
 30
0.0
 11
-73.65000002383655
 21
132.0999998380622
 31
0.0
  0
LINE
  5
22A
330
67
100
AcDbEntity
  8
0
  6
Continuous
 62
     7
100
AcDbLine
 10
-75.85000002383657
 20
149.0999998380081
 30
0.0
 11
-73.65000002383655
 21
149.0999998380081
 31
0.0
  0
LINE
  5
22B
330
67
100
AcDbEntity
  8
0
  6
Continuous
 62
     7
100
AcDbLine
 10
-75.85000002383657
 20
140.099999838052
 30
0.0
 11
-73.65000002383655
 21
140.099999838052
 31
0.0
  0
LINE
  5
22C
330
67
100
AcDbEntity
  8
0
  6
Continuous
 62
     7
100
AcDbLine
 10
-73.65000002383655
 20
140.099999838052
 30
0.0
 11
-73.65000002383655
 21
132.0999998380622
 31
0.0
  0
LINE
  5
22D
330
67
100
AcDbEntity
  8
0
  6
Continuous
 62
     7
100
AcDbLine
 10
-73.65000002383655
 20
140.099999838052
 30
0.0
 11
-73.65000002383655
 21
149.0999998380081
 31
0.0
  0
ENDBLK
  5
69
330
67
100
AcDbEntity
  8
0
100
AcDbBlockEnd
  0
BLOCK
  5
6C
330
6A
100
AcDbEntity
  8
0
100
AcDbBlockBegin
  2
SA_Links1
 70
     0
 10
-74.74999999999466
 20
147.8750003576536
 30
0.0
  3
SA_Links1
  1

  0
INSERT
  5
6B
330
6A
100
AcDbEntity
  8
0
100
AcDbBlockReference
  2
D-QTC_2_5-TWIN-select__4
 10
-75.85000002383657
 20
132.0999998380622
 30
0.0
  0
MTEXT
  5
22E
330
6A
100
AcDbEntity
  8
1
 62
     6
100
AcDbMText
 10
-74.74999999999386
 20
127.1000000238519
 30
0.0
 40
5.0
 41
0.0
 71
     2
 72
     1
  1
 
  7
CONVERTER_11
 73
     1
 44
1.32052821128451
  0
ENDBLK
  5
6D
330
6A
100
AcDbEntity
  8
0
100
AcDbBlockEnd
  0
BLOCK
  5
6F
330
6E
100
AcDbEntity
  8
0
100
AcDbBlockBegin
  2
D-QTC_2_5-TWIN-select__5
 70
     0
 10
-211.3499999761642
 20
132.0999998380348
 30
0.0
  3
D-QTC_2_5-TWIN-select__5
  1

  0
LINE
  5
22F
330
6E
100
AcDbEntity
  8
0
  6
Continuous
 62
     7
100
AcDbLine
 10
-209.1499999761642
 20
135.0354954591586
 30
0.0
 11
-209.1499999761642
 21
137.0999998349611
 31
0.0
  0
LINE
  5
230
330
6E
100
AcDbEntity
  8
0
  6
Continuous
 62
     7
100
AcDbLine
 10
-211.3499999761642
 20
135.0354954591586
 30
0.0
 11
-211.3499999761642
 21
137.0999998349611
 31
0.0
  0
LINE
  5
231
330
6E
100
AcDbEntity
  8
0
  6
Continuous
 62
     7
100
AcDbLine
 10
-211.3499999761642
 20
135.0354954591586
 30
0.0
 11
-211.3499999761642
 21
132.0999998380348
 31
0.0
  0
LINE
  5
232
330
6E
100
AcDbEntity
  8
0
  6
Continuous
 62
     7
100
AcDbLine
 10
-209.1499999761642
 20
135.0354954591586
 30
0.0
 11
-211.3499999761642
 21
135.0354954591586
 31
0.0
  0
LINE
  5
233
330
6E
100
AcDbEntity
  8
0
  6
Continuous
 62
     7
100
AcDbLine
 10
-209.1499999761642
 20
132.0999998380348
 30
0.0
 11
-211.3499999761642
 21
132.0999998380348
 31
0.0
  0
LINE
  5
234
330
6E
100
AcDbEntity
  8
0
  6
Continuous
 62
     7
100
AcDbLine
 10
-209.1499999761642
 20
149.0999998380296
 30
0.0
 11
-211.3499999761642
 21
149.0999998380296
 31
0.0
  0
LINE
  5
235
330
6E
100
AcDbEntity
  8
0
  6
Continuous
 62
     7
100
AcDbLine
 10
-209.1499999761642
 20
137.0999998349611
 30
0.0
 11
-211.3499999761642
 21
137.0999998349611
 31
0.0
  0
LINE
  5
236
330
6E
100
AcDbEntity
  8
0
  6
Continuous
 62
     7
100
AcDbLine
 10
-209.1499999761642
 20
135.0354954591586
 30
0.0
 11
-209.1499999761642
 21
132.0999998380348
 31
0.0
  0
LINE
  5
237
330
6E
100
AcDbEntity
  8
0
  6
Continuous
 62
     7
100
AcDbLine
 10
-211.3499999761642
 20
149.0999998380296
 30
0.0
 11
-211.3499999761642
 21
156.5344553813457
 31
0.0
  0
LINE
  5
238
330
6E
100
AcDbEntity
  8
0
  6
Continuous
 62
     7
100
AcDbLine
 10
-209.1499999761642
 20
156.5344553813457
 30
0.0
 11
-209.1499999761642
 21
163.6499998380467
 31
0.0
  0
LINE
  5
239
330
6E
100
AcDbEntity
  8
0
  6
Continuous
 62
     7
100
AcDbLine
 10
-209.1499999761642
 20
149.0999998380296
 30
0.0
 11
-209.1499999761642
 21
156.5344553813457
 31
0.0
  0
LINE
  5
23A
330
6E
100
AcDbEntity
  8
0
  6
Continuous
 62
     7
100
AcDbLine
 10
-209.1499999761642
 20
149.0999998380296
 30
0.0
 11
-209.1499999761642
 21
137.0999998349611
 31
0.0
  0
LINE
  5
23B
330
6E
100
AcDbEntity
  8
0
  6
Continuous
 62
     7
100
AcDbLine
 10
-211.3499999761642
 20
156.5344553813457
 30
0.0
 11
-211.3499999761642
 21
163.6499998380467
 31
0.0
  0
LINE
  5
23C
330
6E
100
AcDbEntity
  8
0
  6
Continuous
 62
     7
100
AcDbLine
 10
-209.1499999761642
 20
163.6499998380467
 30
0.0
 11
-211.3499999761642
 21
163.6499998380467
 31
0.0
  0
LINE
  5
23D
330
6E
100
AcDbEntity
  8
0
  6
Continuous
 62
     7
100
AcDbLine
 10
-209.1499999761642
 20
156.5344553813457
 30
0.0
 11
-211.3499999761642
 21
156.5344553813457
 31
0.0
  0
LINE
  5
23E
330
6E
100
AcDbEntity
  8
0
  6
Continuous
 62
     7
100
AcDbLine
 10
-211.3499999761642
 20
149.0999998380296
 30
0.0
 11
-211.3499999761642
 21
137.0999998349611
 31
0.0
  0
ENDBLK
  5
70
330
6E
100
AcDbEntity
  8
0
100
AcDbBlockEnd
  0
BLOCK
  5
73
330
71
100
AcDbEntity
  8
0
100
AcDbBlockBegin
  2
SA_Rechts1
 70
     0
 10
-210.2500000000061
 20
147.8750003576536
 30
0.0
  3
SA_Rechts1
  1

  0
INSERT
  5
72
330
71
100
AcDbEntity
  8
0
100
AcDbBlockReference
  2
D-QTC_2_5-TWIN-select__5
 10
-211.3499999761642
 20
132.0999998380348
 30
0.0
  0
MTEXT
  5
23F
330
71
100
AcDbEntity
  8
1
 62
     6
100
AcDbMText
 10
-210.2500000000059
 20
127.1000000238519
 30
0.0
 40
5.0
 41
0.0
 71
     2
 72
     1
  1
 
  7
CONVERTER_11
 73
     1
 44
1.32052821128451
  0
ENDBLK
  5
74
330
71
100
AcDbEntity
  8
0
100
AcDbBlockEnd
  0
BLOCK
  5
76
330
75
100
AcDbEntity
  8
0
100
AcDbBlockBegin
  2
D-QTC_2_5-TWIN-select__6
 70
     0
 10
-174.2499990103982
 20
132.0999998380348
 30
0.0
  3
D-QTC_2_5-TWIN-select__6
  1

  0
LINE
  5
240
330
75
100
AcDbEntity
  8
0
  6
Continuous
 62
     7
100
AcDbLine
 10
-174.2499990103982
 20
132.0999998380621
 30
0.0
 11
-102.0714327974688
 21
132.0999998380348
 31
0.0
  0
LINE
  5
241
330
75
100
AcDbEntity
  8
0
  6
Continuous
 62
     7
100
AcDbLine
 10
-174.2499990103951
 20
140.099999838052
 30
0.0
 11
-174.2499990103982
 21
132.0999998380621
 31
0.0
  0
LINE
  5
242
330
75
100
AcDbEntity
  8
0
  6
Continuous
 62
     7
100
AcDbLine
 10
-132.1512647824487
 20
161.1499998380397
 30
0.0
 11
-152.8684987274871
 21
161.1499998380475
 31
0.0
  0
LINE
  5
243
330
75
100
AcDbEntity
  8
0
  6
Continuous
 62
     7
100
AcDbLine
 10
-132.1512647824484
 20
161.9707020294653
 30
0.0
 11
-132.1512647824487
 21
161.1499998380397
 31
0.0
  0
LINE
  5
244
330
75
100
AcDbEntity
  8
0
  6
Continuous
 62
     7
100
AcDbLine
 10
-128.5499990103675
 20
163.6499998380358
 30
0.0
 11
-132.1512647824484
 21
161.9707020294653
 31
0.0
  0
LINE
  5
245
330
75
100
AcDbEntity
  8
0
  6
Continuous
 62
     7
100
AcDbLine
 10
-93.65660340124398
 20
163.6499998380226
 30
0.0
 11
-128.5499990103675
 21
163.6499998380358
 31
0.0
  0
LINE
  5
246
330
75
100
AcDbEntity
  8
0
  6
Continuous
 62
     7
100
AcDbLine
 10
-157.3499990090452
 20
163.6499998380467
 30
0.0
 11
-172.343394619509
 21
163.6499998380524
 31
0.0
  0
LINE
  5
247
330
75
100
AcDbEntity
  8
0
  6
Continuous
 62
     7
100
AcDbLine
 10
-91.74999901036949
 20
156.5344553813457
 30
0.0
 11
-93.65660340124398
 21
163.6499998380226
 31
0.0
  0
LINE
  5
248
330
75
100
AcDbEntity
  8
0
  6
Continuous
 62
     7
100
AcDbLine
 10
-91.7499990103723
 20
149.0999998380297
 30
0.0
 11
-91.74999901036949
 21
156.5344553813457
 31
0.0
  0
LINE
  5
249
330
75
100
AcDbEntity
  8
0
  6
Continuous
 62
     7
100
AcDbLine
 10
-91.74999900903839
 20
135.0354954591586
 30
0.0
 11
-91.74999900903771
 21
137.0999998349611
 31
0.0
  0
LINE
  5
24A
330
75
100
AcDbEntity
  8
0
  6
Continuous
 62
     7
100
AcDbLine
 10
-152.8684987274871
 20
161.1499998380475
 30
0.0
 11
-153.0844458963996
 21
161.6609397553512
 31
0.0
  0
LINE
  5
24B
330
75
100
AcDbEntity
  8
0
  6
Continuous
 62
     7
100
AcDbLine
 10
-157.3499990090452
 20
163.6499998380467
 30
0.0
 11
-153.0844458963996
 21
161.6609397553512
 31
0.0
  0
LINE
  5
24C
330
75
100
AcDbEntity
  8
0
  6
Continuous
 62
     7
100
AcDbLine
 10
-172.343394619509
 20
163.6499998380524
 30
0.0
 11
-174.2499990103704
 21
156.5344553814445
 31
0.0
  0
LINE
  5
24D
330
75
100
AcDbEntity
  8
0
  6
Continuous
 62
     7
100
AcDbLine
 10
-174.2499990103704
 20
156.5344553814445
 30
0.0
 11
-174.249999010376
 21
149.0999998380081
 31
0.0
  0
LINE
  5
24E
330
75
100
AcDbEntity
  8
0
  6
Continuous
 62
     7
100
AcDbLine
 10
-91.74999900903839
 20
135.0354954591586
 30
0.0
 11
-102.0714327974688
 21
132.0999998380348
 31
0.0
  0
ARC
  5
24F
330
75
100
AcDbEntity
  8
0
  6
Continuous
 62
     7
100
AcDbCircle
 10
-78.00227192550699
 20
143.0999998380244
 30
0.0
 40
15.00000000000011
100
AcDbArc
 50
156.4218215217762
 51
203.5781784909684
  0
ARC
  5
250
330
75
100
AcDbEntity
  8
0
  6
Continuous
 62
     7
100
AcDbCircle
 10
-188.5590870316466
 20
144.5999998380605
 30
0.0
 40
15.0
100
AcDbArc
 50
342.5423968762439
 51
17.4576031235123
  0
ENDBLK
  5
77
330
75
100
AcDbEntity
  8
0
100
AcDbBlockEnd
  0
BLOCK
  5
7A
330
78
100
AcDbEntity
  8
0
100
AcDbBlockBegin
  2
Vordans1
 70
     0
 10
-133.0000000000001
 20
147.8750003576536
 30
0.0
  3
Vordans1
  1

  0
INSERT
  5
79
330
78
100
AcDbEntity
  8
0
100
AcDbBlockReference
  2
D-QTC_2_5-TWIN-select__6
 10
-174.2499990103982
 20
132.0999998380348
 30
0.0
  0
MTEXT
  5
251
330
78
100
AcDbEntity
  8
1
 62
     6
100
AcDbMText
 10
-133.0
 20
127.100000023852
 30
0.0
 40
5.0
 41
0.0
 71
     2
 72
     1
  1
 
  7
CONVERTER_11
 73
     1
 44
1.32052821128451
  0
DIMENSION
  5
25C
330
78
100
AcDbEntity
  8
1
100
AcDbDimension
  2
*D18
 10
-184.2499990103982
 20
132.0999998380621
 30
0.0
 11
-187.6749990103982
 21
147.432680485185
 31
0.0
 70
    32
  1
<>
 71
     5
 42
-1.0
 53
90.0
  3
ME10_DIM_11
100
AcDbAlignedDimension
 13
-172.343394619509
 23
163.6499998380524
 33
0.0
 14
-174.2499990103982
 24
132.0999998380621
 34
0.0
 50
90.0
100
AcDbRotatedDimension
  0
DIMENSION
  5
267
330
78
100
AcDbEntity
  8
1
100
AcDbDimension
  2
*D19
 10
-174.2499990103982
 20
122.0999998380621
 30
0.0
 11
-133.0
 21
125.5249998380621
 31
0.0
 70
    32
  1
<>
 71
     5
 42
-1.0
 53
0.00013888888889
  3
ME10_DIM_12
100
AcDbAlignedDimension
 13
-91.74999900903839
 23
135.0354954591586
 33
0.0
 14
-174.2499990103982
 24
132.0999998380621
 34
0.0
100
AcDbRotatedDimension
  0
ENDBLK
  5
7B
330
78
100
AcDbEntity
  8
0
100
AcDbBlockEnd
  0
BLOCK
  5
84
330
7C
100
AcDbEntity
  8
0
100
AcDbBlockBegin
  2
1
 70
     0
 10
0.0
 20
0.0
 30
0.0
  3
1
  1

  0
INSERT
  5
7D
330
7C
100
AcDbEntity
  8
0
100
AcDbBlockReference
  2
A4I_CS
 10
52.24999950520213
 20
4.5998174109402
 30
0.0
  0
INSERT
  5
7E
330
7C
100
AcDbEntity
  8
0
100
AcDbBlockReference
  2
AllgSicht1
 10
-11.5000000000006
 20
90.0
 30
0.0
  0
INSERT
  5
7F
330
7C
100
AcDbEntity
  8
0
100
AcDbBlockReference
  2
Drfsicht1
 10
-133.0
 20
93.00000000000003
 30
0.0
  0
INSERT
  5
80
330
7C
100
AcDbEntity
  8
0
100
AcDbBlockReference
  2
Rckans1
 10
-11.49999999998795
 20
147.8750003576536
 30
0.0
  0
INSERT
  5
81
330
7C
100
AcDbEntity
  8
0
100
AcDbBlockReference
  2
SA_Links1
 10
-74.74999999999466
 20
147.8750003576536
 30
0.0
  0
INSERT
  5
82
330
7C
100
AcDbEntity
  8
0
100
AcDbBlockReference
  2
SA_Rechts1
 10
-210.2500000000061
 20
147.8750003576536
 30
0.0
  0
INSERT
  5
83
330
7C
100
AcDbEntity
  8
0
100
AcDbBlockReference
  2
Vordans1
 10
-133.0000000000001
 20
147.8750003576536
 30
0.0
  0
ENDBLK
  5
85
330
7C
100
AcDbEntity
  8
0
100
AcDbBlockEnd
  0
BLOCK
  5
20B
330
202
100
AcDbEntity
  8
0
100
AcDbBlockBegin
  2
*D17
 70
     1
 10
0.0
 20
0.0
 30
0.0
  3
*D17
  1

  0
LINE
  5
203
330
202
100
AcDbEntity
  8
1
  6
Continuous
 62
     2
100
AcDbLine
 10
-184.2499990103702
 20
84.90000002384187
 30
0.0
 11
-184.2499990103702
 21
91.90000002384187
 31
0.0
  0
LINE
  5
204
330
202
100
AcDbEntity
  8
1
  6
Continuous
 62
     2
100
AcDbLine
 10
-184.2499990103702
 20
91.90000002384187
 30
0.0
 11
-184.2499990103702
 21
94.10000002384189
 31
0.0
  0
LINE
  5
205
330
202
100
AcDbEntity
  8
1
  6
Continuous
 62
     2
100
AcDbLine
 10
-184.2499990103702
 20
94.10000002384189
 30
0.0
 11
-184.2499990103702
 21
106.775889017017
 31
0.0
  0
LINE
  5
206
330
202
100
AcDbEntity
  8
1
  6
Continuous
 62
     2
100
AcDbLine
 10
-174.2499990103702
 20
91.90000002384187
 30
0.0
 11
-185.7499990103702
 21
91.90000002384187
 31
0.0
  0
LINE
  5
207
330
202
100
AcDbEntity
  8
1
  6
Continuous
 62
     2
100
AcDbLine
 10
-174.2499990103702
 20
94.10000002384189
 30
0.0
 11
-185.7499990103702
 21
94.10000002384189
 31
0.0
  0
SOLID
  5
208
330
202
100
AcDbEntity
  8
1
 62
     2
100
AcDbTrace
 10
-183.7892152688143
 20
88.40000002384187
 30
0.0
 11
-184.710782751926
 21
88.40000002384187
 31
0.0
 12
-184.2499990103702
 22
91.90000002384187
 32
0.0
 13
-184.2499990103702
 23
91.90000002384187
 33
0.0
  0
SOLID
  5
209
330
202
100
AcDbEntity
  8
1
 62
     2
100
AcDbTrace
 10
-184.710782751926
 20
97.60000002384189
 30
0.0
 11
-183.7892152688143
 21
97.60000002384189
 31
0.0
 12
-184.2499990103702
 22
94.10000002384189
 32
0.0
 13
-184.2499990103702
 23
94.10000002384189
 33
0.0
  0
MTEXT
  5
20A
330
202
100
AcDbEntity
  8
1
 62
     3
100
AcDbMText
 10
-186.0999990103702
 20
100.300889017017
 30
0.0
 40
3.5
 41
0.0
 71
     7
 72
     1
  1
2,2
  7
CONVERTER_11
 11
0.0
 21
1.0
 31
0.0
 73
     1
 44
0.60024009603842
  0
ENDBLK
  5
20C
330
202
100
AcDbEntity
  8
0
100
AcDbBlockEnd
  0
BLOCK
  5
259
330
252
100
AcDbEntity
  8
0
100
AcDbBlockBegin
  2
*D18
 70
     1
 10
0.0
 20
0.0
 30
0.0
  3
*D18
  1

  0
LINE
  5
253
330
252
100
AcDbEntity
  8
1
  6
Continuous
 62
     2
100
AcDbLine
 10
-184.2499990103982
 20
132.0999998380621
 30
0.0
 11
-184.2499990103982
 21
163.6499998380524
 31
0.0
  0
LINE
  5
254
330
252
100
AcDbEntity
  8
1
  6
Continuous
 62
     2
100
AcDbLine
 10
-174.2499990103982
 20
132.0999998380621
 30
0.0
 11
-185.7499990103982
 21
132.0999998380621
 31
0.0
  0
LINE
  5
255
330
252
100
AcDbEntity
  8
1
  6
Continuous
 62
     2
100
AcDbLine
 10
-172.3433946195091
 20
163.6499998380524
 30
0.0
 11
-185.7499990103982
 21
163.6499998380524
 31
0.0
  0
SOLID
  5
256
330
252
100
AcDbEntity
  8
1
 62
     2
100
AcDbTrace
 10
-184.7107827519541
 20
135.5999998380621
 30
0.0
 11
-183.7892152688423
 21
135.5999998380621
 31
0.0
 12
-184.2499990103982
 22
132.0999998380621
 32
0.0
 13
-184.2499990103982
 23
132.0999998380621
 33
0.0
  0
SOLID
  5
257
330
252
100
AcDbEntity
  8
1
 62
     2
100
AcDbTrace
 10
-183.7892152688423
 20
160.1499998380524
 30
0.0
 11
-184.7107827519541
 21
160.1499998380524
 31
0.0
 12
-184.2499990103982
 22
163.6499998380524
 32
0.0
 13
-184.2499990103982
 23
163.6499998380524
 33
0.0
  0
MTEXT
  5
258
330
252
100
AcDbEntity
  8
1
 62
     3
100
AcDbMText
 10
-186.0999990103982
 20
141.570180485185
 30
0.0
 40
3.5
 41
0.0
 71
     7
 72
     1
  1
31,55
  7
CONVERTER_11
 11
0.0
 21
1.0
 31
0.0
 73
     1
 44
0.60024009603842
  0
ENDBLK
  5
25A
330
252
100
AcDbEntity
  8
0
100
AcDbBlockEnd
  0
BLOCK
  5
264
330
25D
100
AcDbEntity
  8
0
100
AcDbBlockBegin
  2
*D19
 70
     1
 10
0.0
 20
0.0
 30
0.0
  3
*D19
  1

  0
LINE
  5
25E
330
25D
100
AcDbEntity
  8
1
  6
Continuous
 62
     2
100
AcDbLine
 10
-174.2499990103982
 20
122.0999998380621
 30
0.0
 11
-91.74999900903839
 21
122.0999998380621
 31
0.0
  0
LINE
  5
25F
330
25D
100
AcDbEntity
  8
1
  6
Continuous
 62
     2
100
AcDbLine
 10
-174.2499990103982
 20
132.0999998380621
 30
0.0
 11
-174.2499990103982
 21
120.5999998380621
 31
0.0
  0
LINE
  5
260
330
25D
100
AcDbEntity
  8
1
  6
Continuous
 62
     2
100
AcDbLine
 10
-91.74999900903839
 20
135.0354954591586
 30
0.0
 11
-91.74999900903839
 21
120.5999998380621
 31
0.0
  0
SOLID
  5
261
330
25D
100
AcDbEntity
  8
1
 62
     2
100
AcDbTrace
 10
-170.7499990103982
 20
122.560783579618
 30
0.0
 11
-170.7499990103982
 21
121.6392160965062
 31
0.0
 12
-174.2499990103982
 22
122.0999998380621
 32
0.0
 13
-174.2499990103982
 23
122.0999998380621
 33
0.0
  0
SOLID
  5
262
330
25D
100
AcDbEntity
  8
1
 62
     2
100
AcDbTrace
 10
-95.24999900903839
 20
121.6392160965062
 30
0.0
 11
-95.24999900903839
 21
122.560783579618
 31
0.0
 12
-91.74999900903839
 22
122.0999998380621
 32
0.0
 13
-91.74999900903839
 23
122.0999998380621
 33
0.0
  0
MTEXT
  5
263
330
25D
100
AcDbEntity
  8
1
 62
     3
100
AcDbMText
 10
-137.8125
 20
123.9499998380621
 30
0.0
 40
3.5
 41
0.0
 71
     7
 72
     1
  1
82,5
  7
CONVERTER_11
 11
0.9999999999970619
 21
2.424068405545306E-6
 31
0.0
 73
     1
 44
0.60024009603842
  0
ENDBLK
  5
265
330
25D
100
AcDbEntity
  8
0
100
AcDbBlockEnd
  0
ENDSEC
  0
SECTION
  2
ENTITIES
  0
INSERT
  5
86
330
1F
100
AcDbEntity
  8
1
100
AcDbBlockReference
  2
1
 10
0.0
 20
0.0
 30
0.0
  0
ENDSEC
  0
SECTION
  2
OBJECTS
  0
DICTIONARY
  5
C
330
0
100
AcDbDictionary
281
     1
  3
ACAD_GROUP
350
D
  3
ACAD_LAYOUT
350
1A
  3
ACAD_MATERIAL
350
3B
  3
ACAD_MLEADERSTYLE
350
28F
  3
ACAD_MLINESTYLE
350
17
  3
ACAD_PLOTSETTINGS
350
19
  3
ACAD_PLOTSTYLENAME
350
E
  3
ACAD_TABLESTYLE
350
28E
  3
ACAD_VISUALSTYLE
350
2A
  0
DICTIONARY
  5
D
102
{ACAD_REACTORS
330
C
102
}
330
C
100
AcDbDictionary
281
     1
  0
DICTIONARY
  5
1A
102
{ACAD_REACTORS
330
C
102
}
330
C
100
AcDbDictionary
281
     1
  3
Layout1
350
1E
  3
Layout2
350
26
  3
Model
350
22
  0
DICTIONARY
  5
3B
102
{ACAD_REACTORS
330
C
102
}
330
C
100
AcDbDictionary
281
     1
  3
ByBlock
350
3D
  3
ByLayer
350
3C
  3
Global
350
3E
  0
DICTIONARY
  5
28F
102
{ACAD_REACTORS
330
C
102
}
330
C
100
AcDbDictionary
281
     1
  0
DICTIONARY
  5
17
102
{ACAD_REACTORS
330
C
102
}
330
C
100
AcDbDictionary
281
     1
  3
Standard
350
18
  0
DICTIONARY
  5
19
102
{ACAD_REACTORS
330
C
102
}
330
C
100
AcDbDictionary
281
     1
  0
ACDBDICTIONARYWDFLT
  5
E
102
{ACAD_REACTORS
330
C
102
}
330
C
100
AcDbDictionary
281
     1
  3
Normal
350
F
100
AcDbDictionaryWithDefault
340
F
  0
DICTIONARY
  5
28E
102
{ACAD_REACTORS
330
C
102
}
330
C
100
AcDbDictionary
281
     1
  0
DICTIONARY
  5
2A
102
{ACAD_REACTORS
330
C
102
}
330
C
100
AcDbDictionary
281
     1
  3
2dWireframe
350
2F
  3
3D Hidden
350
31
  3
3dWireframe
350
30
  3
Basic
350
32
  3
Brighten
350
36
  3
ColorChange
350
3A
  3
Conceptual
350
34
  3
Dim
350
35
  3
Facepattern
350
39
  3
Flat
350
2B
  3
FlatWithEdges
350
2C
  3
Gouraud
350
2D
  3
GouraudWithEdges
350
2E
  3
Linepattern
350
38
  3
Realistic
350
33
  3
Thicken
350
37
  0
LAYOUT
  5
1E
102
{ACAD_REACTORS
330
1A
102
}
330
1A
100
AcDbPlotSettings
  1

  2
none_device
  4

  6

 40
0.0
 41
0.0
 42
0.0
 43
0.0
 44
0.0
 45
0.0
 46
0.0
 47
0.0
 48
0.0
 49
0.0
140
0.0
141
0.0
142
1.0
143
1.0
 70
   688
 72
     0
 73
     0
 74
     5
  7

 75
    16
 76
     0
 77
     2
 78
   300
147
1.0
148
0.0
149
0.0
100
AcDbLayout
  1
Layout1
 70
     1
 71
     1
 10
0.0
 20
0.0
 11
12.0
 21
9.0
 12
0.0
 22
0.0
 32
0.0
 14
1.00000000000000E+20
 24
1.00000000000000E+20
 34
1.00000000000000E+20
 15
-1.00000000000000E+20
 25
-1.00000000000000E+20
 35
-1.00000000000000E+20
146
0.0
 13
0.0
 23
0.0
 33
0.0
 16
1.0
 26
0.0
 36
0.0
 17
0.0
 27
1.0
 37
0.0
 76
     0
330
1B
  0
LAYOUT
  5
26
102
{ACAD_REACTORS
330
1A
102
}
330
1A
100
AcDbPlotSettings
  1

  2
none_device
  4

  6

 40
0.0
 41
0.0
 42
0.0
 43
0.0
 44
0.0
 45
0.0
 46
0.0
 47
0.0
 48
0.0
 49
0.0
140
0.0
141
0.0
142
1.0
143
1.0
 70
   688
 72
     0
 73
     0
 74
     5
  7

 75
    16
 76
     0
 77
     2
 78
   300
147
1.0
148
0.0
149
0.0
100
AcDbLayout
  1
Layout2
 70
     1
 71
     2
 10
0.0
 20
0.0
 11
0.0
 21
0.0
 12
0.0
 22
0.0
 32
0.0
 14
0.0
 24
0.0
 34
0.0
 15
0.0
 25
0.0
 35
0.0
146
0.0
 13
0.0
 23
0.0
 33
0.0
 16
1.0
 26
0.0
 36
0.0
 17
0.0
 27
1.0
 37
0.0
 76
     0
330
23
  0
LAYOUT
  5
22
102
{ACAD_REACTORS
330
1A
102
}
330
1A
100
AcDbPlotSettings
  1

  2
none_device
  4

  6

 40
0.0
 41
0.0
 42
0.0
 43
0.0
 44
0.0
 45
0.0
 46
0.0
 47
0.0
 48
0.0
 49
0.0
140
0.0
141
0.0
142
1.0
143
1.0
 70
  1712
 72
     0
 73
     0
 74
     0
  7

 75
     0
 76
     0
 77
     2
 78
   300
147
1.0
148
0.0
149
0.0
100
AcDbLayout
  1
Model
 70
     1
 71
     0
 10
0.0
 20
0.0
 11
12.0
 21
9.0
 12
0.0
 22
0.0
 32
0.0
 14
-239.750000494797
 24
4.5998174109402
 34
0.0
 15
57.24999950520112
 25
214.5998174109403
 35
0.0
146
0.0
 13
0.0
 23
0.0
 33
0.0
 16
1.0
 26
0.0
 36
0.0
 17
0.0
 27
1.0
 37
0.0
 76
     0
330
1F
331
29
  0
MATERIAL
  5
3D
102
{ACAD_REACTORS
330
3B
102
}
102
{ACAD_XDICTIONARY
360
28A
102
}
330
3B
100
AcDbMaterial
  1
ByBlock
  0
MATERIAL
  5
3C
102
{ACAD_REACTORS
330
3B
102
}
102
{ACAD_XDICTIONARY
360
288
102
}
330
3B
100
AcDbMaterial
  1
ByLayer
  0
MATERIAL
  5
3E
102
{ACAD_REACTORS
330
3B
102
}
102
{ACAD_XDICTIONARY
360
28C
102
}
330
3B
100
AcDbMaterial
  1
Global
  0
MLINESTYLE
  5
18
102
{ACAD_REACTORS
330
17
102
}
330
17
100
AcDbMlineStyle
  2
Standard
 70
     0
  3

 62
   256
 51
90.0
 52
90.0
 71
     2
 49
0.5
 62
   256
  6
BYLAYER
 49
-0.5
 62
   256
  6
BYLAYER
  0
ACDBPLACEHOLDER
  5
F
102
{ACAD_REACTORS
330
E
102
}
330
E
  0
VISUALSTYLE
  5
2F
102
{ACAD_REACTORS
330
2A
102
}
102
{ACAD_XDICTIONARY
360
270
102
}
330
2A
100
AcDbVisualStyle
  2
2dWireframe
 70
     4
 71
     0
 72
     2
 73
     0
 90
        0
 40
-0.6
 41
-30.0
 62
     5
 63
     7
421
 16777215
 74
     1
 91
        4
 64
     7
 65
   257
 75
     1
175
     1
 42
1.0
 92
        0
 66
   257
 43
1.0
 76
     1
 77
     6
 78
     2
 67
     7
 79
     5
170
     0
171
     0
290
     0
174
     0
 93
        1
 44
0.0
173
     0
291
     0
 45
0.0
1001
ACAD
1000
AcDbSavedByObjectVersion
1070
     0
  0
VISUALSTYLE
  5
31
102
{ACAD_REACTORS
330
2A
102
}
102
{ACAD_XDICTIONARY
360
274
102
}
330
2A
100
AcDbVisualStyle
  2
3D Hidden
 70
     6
 71
     1
 72
     2
 73
     2
 90
        0
 40
-0.6
 41
-30.0
 62
     5
 63
     7
421
 16777215
 74
     2
 91
        2
 64
     7
 65
   257
 75
     2
175
     1
 42
40.0
 92
        0
 66
   257
 43
1.0
 76
     1
 77
     6
 78
     2
 67
     7
 79
     3
170
     0
171
     0
290
     0
174
     0
 93
        1
 44
0.0
173
     0
291
     0
 45
0.0
1001
ACAD
1000
AcDbSavedByObjectVersion
1070
     0
  0
VISUALSTYLE
  5
30
102
{ACAD_REACTORS
330
2A
102
}
102
{ACAD_XDICTIONARY
360
272
102
}
330
2A
100
AcDbVisualStyle
  2
3dWireframe
 70
     5
 71
     0
 72
     2
 73
     0
 90
        0
 40
-0.6
 41
-30.0
 62
     5
 63
     7
421
 16777215
 74
     1
 91
        4
 64
     7
 65
   257
 75
     1
175
     1
 42
1.0
 92
        0
 66
   257
 43
1.0
 76
     1
 77
     6
 78
     2
 67
     7
 79
     5
170
     0
171
     0
290
     0
174
     0
 93
        1
 44
0.0
173
     0
291
     0
 45
0.0
1001
ACAD
1000
AcDbSavedByObjectVersion
1070
     0
  0
VISUALSTYLE
  5
32
102
{ACAD_REACTORS
330
2A
102
}
102
{ACAD_XDICTIONARY
360
276
102
}
330
2A
100
AcDbVisualStyle
  2
Basic
 70
     7
 71
     1
 72
     0
 73
     1
 90
        0
 40
-0.6
 41
-30.0
 62
     5
 63
     7
421
 16777215
 74
     0
 91
        4
 64
     7
 65
   257
 75
     1
175
     1
 42
1.0
 92
        8
 66
     7
 43
1.0
 76
     1
 77
     6
 78
     2
 67
     7
 79
     5
170
     0
171
     0
290
     0
174
     0
 93
        1
 44
0.0
173
     0
291
     1
 45
0.0
1001
ACAD
1000
AcDbSavedByObjectVersion
1070
     0
  0
VISUALSTYLE
  5
36
102
{ACAD_REACTORS
330
2A
102
}
102
{ACAD_XDICTIONARY
360
27E
102
}
330
2A
100
AcDbVisualStyle
  2
Brighten
 70
    12
 71
     2
 72
     2
 73
     0
 90
        0
 40
-0.6
 41
-30.0
 62
     5
 63
     7
421
 16777215
 74
     1
 91
        4
 64
     7
 65
   257
 75
     1
175
     1
 42
1.0
 92
        8
 66
     7
 43
1.0
 76
     1
 77
     6
 78
     2
 67
     7
 79
     5
170
     0
171
     0
290
     0
174
     0
 93
        1
 44
50.0
173
     0
291
     1
 45
0.0
1001
ACAD
1000
AcDbSavedByObjectVersion
1070
     0
  0
VISUALSTYLE
  5
3A
102
{ACAD_REACTORS
330
2A
102
}
102
{ACAD_XDICTIONARY
360
286
102
}
330
2A
100
AcDbVisualStyle
  2
ColorChange
 70
    16
 71
     2
 72
     2
 73
     3
 90
        0
 40
-0.6
 41
-30.0
 62
     5
 63
     8
421
  8421504
 74
     1
 91
        4
 64
     7
 65
   257
 75
     1
175
     1
 42
1.0
 92
        8
 66
     8
424
  8421504
 43
1.0
 76
     1
 77
     6
 78
     2
 67
     7
 79
     5
170
     0
171
     0
290
     0
174
     0
 93
        1
 44
0.0
173
     0
291
     1
 45
0.0
1001
ACAD
1000
AcDbSavedByObjectVersion
1070
     0
  0
VISUALSTYLE
  5
34
102
{ACAD_REACTORS
330
2A
102
}
102
{ACAD_XDICTIONARY
360
27A
102
}
330
2A
100
AcDbVisualStyle
  2
Conceptual
 70
     9
 71
     3
 72
     2
 73
     0
 90
        0
 40
-0.6
 41
-30.0
 62
     5
 63
     7
421
 16777215
 74
     2
 91
        2
 64
     7
 65
   257
 75
     1
175
     1
 42
40.0
 92
        8
 66
     7
 43
1.0
 76
     1
 77
     6
 78
     2
 67
     7
 79
     3
170
     0
171
     0
290
     0
174
     0
 93
        1
 44
0.0
173
     0
291
     0
 45
0.0
1001
ACAD
1000
AcDbSavedByObjectVersion
1070
     0
  0
VISUALSTYLE
  5
35
102
{ACAD_REACTORS
330
2A
102
}
102
{ACAD_XDICTIONARY
360
27C
102
}
330
2A
100
AcDbVisualStyle
  2
Dim
 70
    11
 71
     2
 72
     2
 73
     0
 90
        0
 40
-0.6
 41
-30.0
 62
     5
 63
     7
421
 16777215
 74
     1
 91
        4
 64
     7
 65
   257
 75
     1
175
     1
 42
1.0
 92
        8
 66
     7
 43
1.0
 76
     1
 77
     6
 78
     2
 67
     7
 79
     5
170
     0
171
     0
290
     0
174
     0
 93
        1
 44
-50.0
173
     0
291
     1
 45
0.0
1001
ACAD
1000
AcDbSavedByObjectVersion
1070
     0
  0
VISUALSTYLE
  5
39
102
{ACAD_REACTORS
330
2A
102
}
102
{ACAD_XDICTIONARY
360
284
102
}
330
2A
100
AcDbVisualStyle
  2
Facepattern
 70
    15
 71
     2
 72
     2
 73
     0
 90
        0
 40
-0.6
 41
-30.0
 62
     5
 63
     7
421
 16777215
 74
     1
 91
        4
 64
     7
 65
   257
 75
     1
175
     1
 42
1.0
 92
        8
 66
     7
 43
1.0
 76
     1
 77
     6
 78
     2
 67
     7
 79
     5
170
     0
171
     0
290
     0
174
     0
 93
        1
 44
0.0
173
     0
291
     1
 45
0.0
1001
ACAD
1000
AcDbSavedByObjectVersion
1070
     0
  0
VISUALSTYLE
  5
2B
102
{ACAD_REACTORS
330
2A
102
}
102
{ACAD_XDICTIONARY
360
268
102
}
330
2A
100
AcDbVisualStyle
  2
Flat
 70
     0
 71
     2
 72
     1
 73
     1
 90
        2
 40
-0.6
 41
30.0
 62
     5
 63
     7
421
 16777215
 74
     0
 91
        4
 64
     7
 65
   257
 75
     1
175
     1
 42
1.0
 92
        8
 66
     7
 43
1.0
 76
     1
 77
     6
 78
     2
 67
     7
 79
     5
170
     0
171
     0
290
     0
174
     0
 93
       13
 44
0.0
173
     0
291
     1
 45
0.0
1001
ACAD
1000
AcDbSavedByObjectVersion
1070
     0
  0
VISUALSTYLE
  5
2C
102
{ACAD_REACTORS
330
2A
102
}
102
{ACAD_XDICTIONARY
360
26A
102
}
330
2A
100
AcDbVisualStyle
  2
FlatWithEdges
 70
     1
 71
     2
 72
     1
 73
     1
 90
        2
 40
-0.6
 41
30.0
 62
     5
 63
     7
421
 16777215
 74
     1
 91
        4
 64
     7
 65
   257
 75
     1
175
     1
 42
1.0
 92
        0
 66
   257
 43
1.0
 76
     1
 77
     6
 78
     2
 67
     7
 79
     5
170
     0
171
     0
290
     0
174
     0
 93
       13
 44
0.0
173
     0
291
     1
 45
0.0
1001
ACAD
1000
AcDbSavedByObjectVersion
1070
     0
  0
VISUALSTYLE
  5
2D
102
{ACAD_REACTORS
330
2A
102
}
102
{ACAD_XDICTIONARY
360
26C
102
}
330
2A
100
AcDbVisualStyle
  2
Gouraud
 70
     2
 71
     2
 72
     2
 73
     1
 90
        2
 40
-0.6
 41
30.0
 62
     5
 63
     7
421
 16777215
 74
     0
 91
        4
 64
     7
 65
   257
 75
     1
175
     1
 42
1.0
 92
        0
 66
     7
 43
1.0
 76
     1
 77
     6
 78
     2
 67
     7
 79
     5
170
     0
171
     0
290
     0
174
     0
 93
       13
 44
0.0
173
     0
291
     1
 45
0.0
1001
ACAD
1000
AcDbSavedByObjectVersion
1070
     0
  0
VISUALSTYLE
  5
2E
102
{ACAD_REACTORS
330
2A
102
}
102
{ACAD_XDICTIONARY
360
26E
102
}
330
2A
100
AcDbVisualStyle
  2
GouraudWithEdges
 70
     3
 71
     2
 72
     2
 73
     1
 90
        2
 40
-0.6
 41
30.0
 62
     5
 63
     7
421
 16777215
 74
     1
 91
        4
 64
     7
 65
   257
 75
     1
175
     1
 42
1.0
 92
        0
 66
   257
 43
1.0
 76
     1
 77
     6
 78
     2
 67
     7
 79
     5
170
     0
171
     0
290
     0
174
     0
 93
       13
 44
0.0
173
     0
291
     1
 45
0.0
1001
ACAD
1000
AcDbSavedByObjectVersion
1070
     0
  0
VISUALSTYLE
  5
38
102
{ACAD_REACTORS
330
2A
102
}
102
{ACAD_XDICTIONARY
360
282
102
}
330
2A
100
AcDbVisualStyle
  2
Linepattern
 70
    14
 71
     2
 72
     2
 73
     0
 90
        0
 40
-0.6
 41
-30.0
 62
     5
 63
     7
421
 16777215
 74
     1
 91
        4
 64
     7
 65
   257
 75
     7
175
     7
 42
1.0
 92
        8
 66
     7
 43
1.0
 76
     1
 77
     6
 78
     2
 67
     7
 79
     5
170
     0
171
     0
290
     0
174
     0
 93
        1
 44
0.0
173
     0
291
     1
 45
0.0
1001
ACAD
1000
AcDbSavedByObjectVersion
1070
     0
  0
VISUALSTYLE
  5
33
102
{ACAD_REACTORS
330
2A
102
}
102
{ACAD_XDICTIONARY
360
278
102
}
330
2A
100
AcDbVisualStyle
  2
Realistic
 70
     8
 71
     2
 72
     2
 73
     0
 90
        0
 40
-0.6
 41
-30.0
 62
     5
 63
     7
421
 16777215
 74
     1
 91
        0
 64
     7
 65
   257
 75
     1
175
     1
 42
1.0
 92
        8
 66
     8
424
  7895160
 43
1.0
 76
     1
 77
     6
 78
     2
 67
     7
 79
     5
170
     0
171
     0
290
     0
174
     0
 93
       13
 44
0.0
173
     0
291
     0
 45
0.0
1001
ACAD
1000
AcDbSavedByObjectVersion
1070
     0
  0
VISUALSTYLE
  5
37
102
{ACAD_REACTORS
330
2A
102
}
102
{ACAD_XDICTIONARY
360
280
102
}
330
2A
100
AcDbVisualStyle
  2
Thicken
 70
    13
 71
     2
 72
     2
 73
     0
 90
        0
 40
-0.6
 41
-30.0
 62
     5
 63
     7
421
 16777215
 74
     1
 91
        4
 64
     7
 65
   257
 75
     1
175
     1
 42
1.0
 92
       12
 66
     7
 43
1.0
 76
     1
 77
     6
 78
     2
 67
     7
 79
     5
170
     0
171
     0
290
     0
174
     0
 93
        1
 44
0.0
173
     0
291
     1
 45
0.0
1001
ACAD
1000
AcDbSavedByObjectVersion
1070
     0
  0
DICTIONARY
  5
28A
330
3D
100
AcDbDictionary
280
     1
281
     1
  3
ACAD_XREC_ROUNDTRIP
360
28B
  0
DICTIONARY
  5
288
330
3C
100
AcDbDictionary
280
     1
281
     1
  3
ACAD_XREC_ROUNDTRIP
360
289
  0
DICTIONARY
  5
28C
330
3E
100
AcDbDictionary
280
     1
281
     1
  3
ACAD_XREC_ROUNDTRIP
360
28D
  0
DICTIONARY
  5
270
330
2F
100
AcDbDictionary
280
     1
281
     1
  3
ACAD_XREC_ROUNDTRIP
360
271
  0
DICTIONARY
  5
274
330
31
100
AcDbDictionary
280
     1
281
     1
  3
ACAD_XREC_ROUNDTRIP
360
275
  0
DICTIONARY
  5
272
330
30
100
AcDbDictionary
280
     1
281
     1
  3
ACAD_XREC_ROUNDTRIP
360
273
  0
DICTIONARY
  5
276
330
32
100
AcDbDictionary
280
     1
281
     1
  3
ACAD_XREC_ROUNDTRIP
360
277
  0
DICTIONARY
  5
27E
330
36
100
AcDbDictionary
280
     1
281
     1
  3
ACAD_XREC_ROUNDTRIP
360
27F
  0
DICTIONARY
  5
286
330
3A
100
AcDbDictionary
280
     1
281
     1
  3
ACAD_XREC_ROUNDTRIP
360
287
  0
DICTIONARY
  5
27A
330
34
100
AcDbDictionary
280
     1
281
     1
  3
ACAD_XREC_ROUNDTRIP
360
27B
  0
DICTIONARY
  5
27C
330
35
100
AcDbDictionary
280
     1
281
     1
  3
ACAD_XREC_ROUNDTRIP
360
27D
  0
DICTIONARY
  5
284
330
39
100
AcDbDictionary
280
     1
281
     1
  3
ACAD_XREC_ROUNDTRIP
360
285
  0
DICTIONARY
  5
268
330
2B
100
AcDbDictionary
280
     1
281
     1
  3
ACAD_XREC_ROUNDTRIP
360
269
  0
DICTIONARY
  5
26A
330
2C
100
AcDbDictionary
280
     1
281
     1
  3
ACAD_XREC_ROUNDTRIP
360
26B
  0
DICTIONARY
  5
26C
330
2D
100
AcDbDictionary
280
     1
281
     1
  3
ACAD_XREC_ROUNDTRIP
360
26D
  0
DICTIONARY
  5
26E
330
2E
100
AcDbDictionary
280
     1
281
     1
  3
ACAD_XREC_ROUNDTRIP
360
26F
  0
DICTIONARY
  5
282
330
38
100
AcDbDictionary
280
     1
281
     1
  3
ACAD_XREC_ROUNDTRIP
360
283
  0
DICTIONARY
  5
278
330
33
100
AcDbDictionary
280
     1
281
     1
  3
ACAD_XREC_ROUNDTRIP
360
279
  0
DICTIONARY
  5
280
330
37
100
AcDbDictionary
280
     1
281
     1
  3
ACAD_XREC_ROUNDTRIP
360
281
  0
XRECORD
  5
28B
102
{ACAD_REACTORS
330
28A
102
}
330
28A
100
AcDbXrecord
280
     1
102
MATERIAL
148
0.0
149
0.0
149
0.0
 93
        0
 94
      127
282
     0
 72
     1
 77
     1
171
     1
175
     1
179
     1
273
     0
  0
XRECORD
  5
289
102
{ACAD_REACTORS
330
288
102
}
330
288
100
AcDbXrecord
280
     1
102
MATERIAL
148
0.0
149
0.0
149
0.0
 93
        0
 94
      127
282
     0
 72
     1
 77
     1
171
     1
175
     1
179
     1
273
     0
  0
XRECORD
  5
28D
102
{ACAD_REACTORS
330
28C
102
}
330
28C
100
AcDbXrecord
280
     1
102
MATERIAL
148
0.0
149
0.0
149
0.0
 93
        0
 94
      127
282
     0
 72
     1
 77
     1
171
     1
175
     1
179
     1
273
     0
  0
XRECORD
  5
271
102
{ACAD_REACTORS
330
270
102
}
330
270
100
AcDbXrecord
280
     1
102
RTVSPropertyOp0
 70
     1
102
RTVSPropertyOp1
 70
     1
102
RTVSPropertyOp2
 70
     1
102
RTVSPropertyOp3
 70
     1
102
RTVSPropertyOp4
 70
     1
102
RTVSPropertyOp5
 70
     1
102
RTVSPropertyOp6
 70
     1
102
RTVSPropertyOp7
 70
     1
102
RTVSPropertyOp8
 70
     1
102
RTVSPropertyOp9
 70
     1
102
RTVSPropertyOp10
 70
     1
102
RTVSPropertyOp11
 70
     1
102
RTVSPropertyOp12
 70
     1
102
RTVSPropertyOp13
 70
     1
102
RTVSPropertyOp14
 70
     1
102
RTVSPropertyOp15
 70
     1
102
RTVSPropertyOp16
 70
     1
102
RTVSPropertyOp17
 70
     1
102
RTVSPropertyOp18
 70
     1
102
RTVSPropertyOp19
 70
     1
102
RTVSPropertyOp20
 70
     1
102
RTVSPropertyOp21
 70
     1
102
RTVSPropertyOp22
 70
     1
102
RTVSPropertyOp23
 70
     1
102
RTVSPropertyOp24
 70
     1
102
RTVSPropertyOp25
 70
     1
102
RTVSPropertyOp26
 70
     1
102
RTVSPropertyOp27
 70
     1
102
RTVSPropertyOp28
 70
     1
102
RTVSPropertyOp29
 70
     1
102
RTVSPropertyOp30
 70
     1
102
RTVSPropertyOp31
 70
     1
102
RTVSPropertyOp32
 70
     1
  0
XRECORD
  5
275
102
{ACAD_REACTORS
330
274
102
}
330
274
100
AcDbXrecord
280
     1
102
RTVSPropertyOp0
 70
     1
102
RTVSPropertyOp1
 70
     1
102
RTVSPropertyOp2
 70
     1
102
RTVSPropertyOp3
 70
     1
102
RTVSPropertyOp4
 70
     1
102
RTVSPropertyOp5
 70
     1
102
RTVSPropertyOp6
 70
     1
102
RTVSPropertyOp7
 70
     1
102
RTVSPropertyOp8
 70
     1
102
RTVSPropertyOp9
 70
     1
102
RTVSPropertyOp10
 70
     1
102
RTVSPropertyOp11
 70
     1
102
RTVSPropertyOp12
 70
     1
102
RTVSPropertyOp13
 70
     1
102
RTVSPropertyOp14
 70
     1
102
RTVSPropertyOp15
 70
     1
102
RTVSPropertyOp16
 70
     1
102
RTVSPropertyOp17
 70
     1
102
RTVSPropertyOp18
 70
     1
102
RTVSPropertyOp19
 70
     1
102
RTVSPropertyOp20
 70
     1
102
RTVSPropertyOp21
 70
     1
102
RTVSPropertyOp22
 70
     1
102
RTVSPropertyOp23
 70
     1
102
RTVSPropertyOp24
 70
     1
102
RTVSPropertyOp25
 70
     1
102
RTVSPropertyOp26
 70
     1
102
RTVSPropertyOp27
 70
     1
102
RTVSPropertyOp28
 70
     1
102
RTVSPropertyOp29
 70
     1
102
RTVSPropertyOp30
 70
     1
102
RTVSPropertyOp31
 70
     1
102
RTVSPropertyOp32
 70
     1
  0
XRECORD
  5
273
102
{ACAD_REACTORS
330
272
102
}
330
272
100
AcDbXrecord
280
     1
102
RTVSPropertyOp0
 70
     1
102
RTVSPropertyOp1
 70
     1
102
RTVSPropertyOp2
 70
     1
102
RTVSPropertyOp3
 70
     1
102
RTVSPropertyOp4
 70
     1
102
RTVSPropertyOp5
 70
     1
102
RTVSPropertyOp6
 70
     1
102
RTVSPropertyOp7
 70
     1
102
RTVSPropertyOp8
 70
     1
102
RTVSPropertyOp9
 70
     1
102
RTVSPropertyOp10
 70
     1
102
RTVSPropertyOp11
 70
     1
102
RTVSPropertyOp12
 70
     1
102
RTVSPropertyOp13
 70
     1
102
RTVSPropertyOp14
 70
     1
102
RTVSPropertyOp15
 70
     1
102
RTVSPropertyOp16
 70
     1
102
RTVSPropertyOp17
 70
     1
102
RTVSPropertyOp18
 70
     1
102
RTVSPropertyOp19
 70
     1
102
RTVSPropertyOp20
 70
     1
102
RTVSPropertyOp21
 70
     1
102
RTVSPropertyOp22
 70
     1
102
RTVSPropertyOp23
 70
     1
102
RTVSPropertyOp24
 70
     1
102
RTVSPropertyOp25
 70
     1
102
RTVSPropertyOp26
 70
     1
102
RTVSPropertyOp27
 70
     1
102
RTVSPropertyOp28
 70
     1
102
RTVSPropertyOp29
 70
     1
102
RTVSPropertyOp30
 70
     1
102
RTVSPropertyOp31
 70
     1
102
RTVSPropertyOp32
 70
     1
  0
XRECORD
  5
277
102
{ACAD_REACTORS
330
276
102
}
330
276
100
AcDbXrecord
280
     1
102
RTVSPropertyOp0
 70
     1
102
RTVSPropertyOp1
 70
     1
102
RTVSPropertyOp2
 70
     1
102
RTVSPropertyOp3
 70
     1
102
RTVSPropertyOp4
 70
     1
102
RTVSPropertyOp5
 70
     1
102
RTVSPropertyOp6
 70
     1
102
RTVSPropertyOp7
 70
     1
102
RTVSPropertyOp8
 70
     1
102
RTVSPropertyOp9
 70
     1
102
RTVSPropertyOp10
 70
     1
102
RTVSPropertyOp11
 70
     1
102
RTVSPropertyOp12
 70
     1
102
RTVSPropertyOp13
 70
     1
102
RTVSPropertyOp14
 70
     1
102
RTVSPropertyOp15
 70
     1
102
RTVSPropertyOp16
 70
     1
102
RTVSPropertyOp17
 70
     1
102
RTVSPropertyOp18
 70
     1
102
RTVSPropertyOp19
 70
     1
102
RTVSPropertyOp20
 70
     1
102
RTVSPropertyOp21
 70
     1
102
RTVSPropertyOp22
 70
     1
102
RTVSPropertyOp23
 70
     1
102
RTVSPropertyOp24
 70
     1
102
RTVSPropertyOp25
 70
     1
102
RTVSPropertyOp26
 70
     1
102
RTVSPropertyOp27
 70
     1
102
RTVSPropertyOp28
 70
     1
102
RTVSPropertyOp29
 70
     1
102
RTVSPropertyOp30
 70
     1
102
RTVSPropertyOp31
 70
     1
102
RTVSPropertyOp32
 70
     1
  0
XRECORD
  5
27F
102
{ACAD_REACTORS
330
27E
102
}
330
27E
100
AcDbXrecord
280
     1
102
RTVSPropertyOp0
 70
     1
102
RTVSPropertyOp1
 70
     1
102
RTVSPropertyOp2
 70
     1
102
RTVSPropertyOp3
 70
     1
102
RTVSPropertyOp4
 70
     1
102
RTVSPropertyOp5
 70
     1
102
RTVSPropertyOp6
 70
     1
102
RTVSPropertyOp7
 70
     1
102
RTVSPropertyOp8
 70
     1
102
RTVSPropertyOp9
 70
     1
102
RTVSPropertyOp10
 70
     1
102
RTVSPropertyOp11
 70
     1
102
RTVSPropertyOp12
 70
     1
102
RTVSPropertyOp13
 70
     1
102
RTVSPropertyOp14
 70
     1
102
RTVSPropertyOp15
 70
     1
102
RTVSPropertyOp16
 70
     1
102
RTVSPropertyOp17
 70
     1
102
RTVSPropertyOp18
 70
     1
102
RTVSPropertyOp19
 70
     1
102
RTVSPropertyOp20
 70
     1
102
RTVSPropertyOp21
 70
     1
102
RTVSPropertyOp22
 70
     1
102
RTVSPropertyOp23
 70
     1
102
RTVSPropertyOp24
 70
     1
102
RTVSPropertyOp25
 70
     1
102
RTVSPropertyOp26
 70
     1
102
RTVSPropertyOp27
 70
     1
102
RTVSPropertyOp28
 70
     1
102
RTVSPropertyOp29
 70
     1
102
RTVSPropertyOp30
 70
     1
102
RTVSPropertyOp31
 70
     1
102
RTVSPropertyOp32
 70
     1
  0
XRECORD
  5
287
102
{ACAD_REACTORS
330
286
102
}
330
286
100
AcDbXrecord
280
     1
102
RTVSPropertyOp0
 70
     1
102
RTVSPropertyOp1
 70
     1
102
RTVSPropertyOp2
 70
     1
102
RTVSPropertyOp3
 70
     1
102
RTVSPropertyOp4
 70
     1
102
RTVSPropertyOp5
 70
     1
102
RTVSPropertyOp6
 70
     1
102
RTVSPropertyOp7
 70
     1
102
RTVSPropertyOp8
 70
     1
102
RTVSPropertyOp9
 70
     1
102
RTVSPropertyOp10
 70
     1
102
RTVSPropertyOp11
 70
     1
102
RTVSPropertyOp12
 70
     1
102
RTVSPropertyOp13
 70
     1
102
RTVSPropertyOp14
 70
     1
102
RTVSPropertyOp15
 70
     1
102
RTVSPropertyOp16
 70
     1
102
RTVSPropertyOp17
 70
     1
102
RTVSPropertyOp18
 70
     1
102
RTVSPropertyOp19
 70
     1
102
RTVSPropertyOp20
 70
     1
102
RTVSPropertyOp21
 70
     1
102
RTVSPropertyOp22
 70
     1
102
RTVSPropertyOp23
 70
     1
102
RTVSPropertyOp24
 70
     1
102
RTVSPropertyOp25
 70
     1
102
RTVSPropertyOp26
 70
     1
102
RTVSPropertyOp27
 70
     1
102
RTVSPropertyOp28
 70
     1
102
RTVSPropertyOp29
 70
     1
102
RTVSPropertyOp30
 70
     1
102
RTVSPropertyOp31
 70
     1
102
RTVSPropertyOp32
 70
     1
  0
XRECORD
  5
27B
102
{ACAD_REACTORS
330
27A
102
}
330
27A
100
AcDbXrecord
280
     1
102
RTVSPropertyOp0
 70
     1
102
RTVSPropertyOp1
 70
     1
102
RTVSPropertyOp2
 70
     1
102
RTVSPropertyOp3
 70
     1
102
RTVSPropertyOp4
 70
     1
102
RTVSPropertyOp5
 70
     1
102
RTVSPropertyOp6
 70
     1
102
RTVSPropertyOp7
 70
     1
102
RTVSPropertyOp8
 70
     1
102
RTVSPropertyOp9
 70
     1
102
RTVSPropertyOp10
 70
     1
102
RTVSPropertyOp11
 70
     1
102
RTVSPropertyOp12
 70
     1
102
RTVSPropertyOp13
 70
     1
102
RTVSPropertyOp14
 70
     1
102
RTVSPropertyOp15
 70
     1
102
RTVSPropertyOp16
 70
     1
102
RTVSPropertyOp17
 70
     1
102
RTVSPropertyOp18
 70
     1
102
RTVSPropertyOp19
 70
     1
102
RTVSPropertyOp20
 70
     1
102
RTVSPropertyOp21
 70
     1
102
RTVSPropertyOp22
 70
     1
102
RTVSPropertyOp23
 70
     1
102
RTVSPropertyOp24
 70
     1
102
RTVSPropertyOp25
 70
     1
102
RTVSPropertyOp26
 70
     1
102
RTVSPropertyOp27
 70
     1
102
RTVSPropertyOp28
 70
     1
102
RTVSPropertyOp29
 70
     1
102
RTVSPropertyOp30
 70
     1
102
RTVSPropertyOp31
 70
     1
102
RTVSPropertyOp32
 70
     1
  0
XRECORD
  5
27D
102
{ACAD_REACTORS
330
27C
102
}
330
27C
100
AcDbXrecord
280
     1
102
RTVSPropertyOp0
 70
     1
102
RTVSPropertyOp1
 70
     1
102
RTVSPropertyOp2
 70
     1
102
RTVSPropertyOp3
 70
     1
102
RTVSPropertyOp4
 70
     1
102
RTVSPropertyOp5
 70
     1
102
RTVSPropertyOp6
 70
     1
102
RTVSPropertyOp7
 70
     1
102
RTVSPropertyOp8
 70
     1
102
RTVSPropertyOp9
 70
     1
102
RTVSPropertyOp10
 70
     1
102
RTVSPropertyOp11
 70
     1
102
RTVSPropertyOp12
 70
     1
102
RTVSPropertyOp13
 70
     1
102
RTVSPropertyOp14
 70
     1
102
RTVSPropertyOp15
 70
     1
102
RTVSPropertyOp16
 70
     1
102
RTVSPropertyOp17
 70
     1
102
RTVSPropertyOp18
 70
     1
102
RTVSPropertyOp19
 70
     1
102
RTVSPropertyOp20
 70
     1
102
RTVSPropertyOp21
 70
     1
102
RTVSPropertyOp22
 70
     1
102
RTVSPropertyOp23
 70
     1
102
RTVSPropertyOp24
 70
     1
102
RTVSPropertyOp25
 70
     1
102
RTVSPropertyOp26
 70
     1
102
RTVSPropertyOp27
 70
     1
102
RTVSPropertyOp28
 70
     1
102
RTVSPropertyOp29
 70
     1
102
RTVSPropertyOp30
 70
     1
102
RTVSPropertyOp31
 70
     1
102
RTVSPropertyOp32
 70
     1
  0
XRECORD
  5
285
102
{ACAD_REACTORS
330
284
102
}
330
284
100
AcDbXrecord
280
     1
102
RTVSPropertyOp0
 70
     1
102
RTVSPropertyOp1
 70
     1
102
RTVSPropertyOp2
 70
     1
102
RTVSPropertyOp3
 70
     1
102
RTVSPropertyOp4
 70
     1
102
RTVSPropertyOp5
 70
     1
102
RTVSPropertyOp6
 70
     1
102
RTVSPropertyOp7
 70
     1
102
RTVSPropertyOp8
 70
     1
102
RTVSPropertyOp9
 70
     1
102
RTVSPropertyOp10
 70
     1
102
RTVSPropertyOp11
 70
     1
102
RTVSPropertyOp12
 70
     1
102
RTVSPropertyOp13
 70
     1
102
RTVSPropertyOp14
 70
     1
102
RTVSPropertyOp15
 70
     1
102
RTVSPropertyOp16
 70
     1
102
RTVSPropertyOp17
 70
     1
102
RTVSPropertyOp18
 70
     1
102
RTVSPropertyOp19
 70
     1
102
RTVSPropertyOp20
 70
     1
102
RTVSPropertyOp21
 70
     1
102
RTVSPropertyOp22
 70
     1
102
RTVSPropertyOp23
 70
     1
102
RTVSPropertyOp24
 70
     1
102
RTVSPropertyOp25
 70
     1
102
RTVSPropertyOp26
 70
     1
102
RTVSPropertyOp27
 70
     1
102
RTVSPropertyOp28
 70
     1
102
RTVSPropertyOp29
 70
     1
102
RTVSPropertyOp30
 70
     1
102
RTVSPropertyOp31
 70
     1
102
RTVSPropertyOp32
 70
     1
  0
XRECORD
  5
269
102
{ACAD_REACTORS
330
268
102
}
330
268
100
AcDbXrecord
280
     1
102
RTVSPropertyOp0
 70
     1
102
RTVSPropertyOp1
 70
     1
102
RTVSPropertyOp2
 70
     1
102
RTVSPropertyOp3
 70
     1
102
RTVSPropertyOp4
 70
     1
102
RTVSPropertyOp5
 70
     1
102
RTVSPropertyOp6
 70
     1
102
RTVSPropertyOp7
 70
     1
102
RTVSPropertyOp8
 70
     1
102
RTVSPropertyOp9
 70
     1
102
RTVSPropertyOp10
 70
     1
102
RTVSPropertyOp11
 70
     1
102
RTVSPropertyOp12
 70
     1
102
RTVSPropertyOp13
 70
     1
102
RTVSPropertyOp14
 70
     1
102
RTVSPropertyOp15
 70
     1
102
RTVSPropertyOp16
 70
     1
102
RTVSPropertyOp17
 70
     1
102
RTVSPropertyOp18
 70
     1
102
RTVSPropertyOp19
 70
     1
102
RTVSPropertyOp20
 70
     1
102
RTVSPropertyOp21
 70
     1
102
RTVSPropertyOp22
 70
     1
102
RTVSPropertyOp23
 70
     1
102
RTVSPropertyOp24
 70
     1
102
RTVSPropertyOp25
 70
     1
102
RTVSPropertyOp26
 70
     1
102
RTVSPropertyOp27
 70
     1
102
RTVSPropertyOp28
 70
     1
102
RTVSPropertyOp29
 70
     1
102
RTVSPropertyOp30
 70
     1
102
RTVSPropertyOp31
 70
     1
102
RTVSPropertyOp32
 70
     1
  0
XRECORD
  5
26B
102
{ACAD_REACTORS
330
26A
102
}
330
26A
100
AcDbXrecord
280
     1
102
RTVSPropertyOp0
 70
     1
102
RTVSPropertyOp1
 70
     1
102
RTVSPropertyOp2
 70
     1
102
RTVSPropertyOp3
 70
     1
102
RTVSPropertyOp4
 70
     1
102
RTVSPropertyOp5
 70
     1
102
RTVSPropertyOp6
 70
     1
102
RTVSPropertyOp7
 70
     1
102
RTVSPropertyOp8
 70
     1
102
RTVSPropertyOp9
 70
     1
102
RTVSPropertyOp10
 70
     1
102
RTVSPropertyOp11
 70
     1
102
RTVSPropertyOp12
 70
     1
102
RTVSPropertyOp13
 70
     1
102
RTVSPropertyOp14
 70
     1
102
RTVSPropertyOp15
 70
     1
102
RTVSPropertyOp16
 70
     1
102
RTVSPropertyOp17
 70
     1
102
RTVSPropertyOp18
 70
     1
102
RTVSPropertyOp19
 70
     1
102
RTVSPropertyOp20
 70
     1
102
RTVSPropertyOp21
 70
     1
102
RTVSPropertyOp22
 70
     1
102
RTVSPropertyOp23
 70
     1
102
RTVSPropertyOp24
 70
     1
102
RTVSPropertyOp25
 70
     1
102
RTVSPropertyOp26
 70
     1
102
RTVSPropertyOp27
 70
     1
102
RTVSPropertyOp28
 70
     1
102
RTVSPropertyOp29
 70
     1
102
RTVSPropertyOp30
 70
     1
102
RTVSPropertyOp31
 70
     1
102
RTVSPropertyOp32
 70
     1
  0
XRECORD
  5
26D
102
{ACAD_REACTORS
330
26C
102
}
330
26C
100
AcDbXrecord
280
     1
102
RTVSPropertyOp0
 70
     1
102
RTVSPropertyOp1
 70
     1
102
RTVSPropertyOp2
 70
     1
102
RTVSPropertyOp3
 70
     1
102
RTVSPropertyOp4
 70
     1
102
RTVSPropertyOp5
 70
     1
102
RTVSPropertyOp6
 70
     1
102
RTVSPropertyOp7
 70
     1
102
RTVSPropertyOp8
 70
     1
102
RTVSPropertyOp9
 70
     1
102
RTVSPropertyOp10
 70
     1
102
RTVSPropertyOp11
 70
     1
102
RTVSPropertyOp12
 70
     1
102
RTVSPropertyOp13
 70
     1
102
RTVSPropertyOp14
 70
     1
102
RTVSPropertyOp15
 70
     1
102
RTVSPropertyOp16
 70
     1
102
RTVSPropertyOp17
 70
     1
102
RTVSPropertyOp18
 70
     1
102
RTVSPropertyOp19
 70
     1
102
RTVSPropertyOp20
 70
     1
102
RTVSPropertyOp21
 70
     1
102
RTVSPropertyOp22
 70
     1
102
RTVSPropertyOp23
 70
     1
102
RTVSPropertyOp24
 70
     1
102
RTVSPropertyOp25
 70
     1
102
RTVSPropertyOp26
 70
     1
102
RTVSPropertyOp27
 70
     1
102
RTVSPropertyOp28
 70
     1
102
RTVSPropertyOp29
 70
     1
102
RTVSPropertyOp30
 70
     1
102
RTVSPropertyOp31
 70
     1
102
RTVSPropertyOp32
 70
     1
  0
XRECORD
  5
26F
102
{ACAD_REACTORS
330
26E
102
}
330
26E
100
AcDbXrecord
280
     1
102
RTVSPropertyOp0
 70
     1
102
RTVSPropertyOp1
 70
     1
102
RTVSPropertyOp2
 70
     1
102
RTVSPropertyOp3
 70
     1
102
RTVSPropertyOp4
 70
     1
102
RTVSPropertyOp5
 70
     1
102
RTVSPropertyOp6
 70
     1
102
RTVSPropertyOp7
 70
     1
102
RTVSPropertyOp8
 70
     1
102
RTVSPropertyOp9
 70
     1
102
RTVSPropertyOp10
 70
     1
102
RTVSPropertyOp11
 70
     1
102
RTVSPropertyOp12
 70
     1
102
RTVSPropertyOp13
 70
     1
102
RTVSPropertyOp14
 70
     1
102
RTVSPropertyOp15
 70
     1
102
RTVSPropertyOp16
 70
     1
102
RTVSPropertyOp17
 70
     1
102
RTVSPropertyOp18
 70
     1
102
RTVSPropertyOp19
 70
     1
102
RTVSPropertyOp20
 70
     1
102
RTVSPropertyOp21
 70
     1
102
RTVSPropertyOp22
 70
     1
102
RTVSPropertyOp23
 70
     1
102
RTVSPropertyOp24
 70
     1
102
RTVSPropertyOp25
 70
     1
102
RTVSPropertyOp26
 70
     1
102
RTVSPropertyOp27
 70
     1
102
RTVSPropertyOp28
 70
     1
102
RTVSPropertyOp29
 70
     1
102
RTVSPropertyOp30
 70
     1
102
RTVSPropertyOp31
 70
     1
102
RTVSPropertyOp32
 70
     1
  0
XRECORD
  5
283
102
{ACAD_REACTORS
330
282
102
}
330
282
100
AcDbXrecord
280
     1
102
RTVSPropertyOp0
 70
     1
102
RTVSPropertyOp1
 70
     1
102
RTVSPropertyOp2
 70
     1
102
RTVSPropertyOp3
 70
     1
102
RTVSPropertyOp4
 70
     1
102
RTVSPropertyOp5
 70
     1
102
RTVSPropertyOp6
 70
     1
102
RTVSPropertyOp7
 70
     1
102
RTVSPropertyOp8
 70
     1
102
RTVSPropertyOp9
 70
     1
102
RTVSPropertyOp10
 70
     1
102
RTVSPropertyOp11
 70
     1
102
RTVSPropertyOp12
 70
     1
102
RTVSPropertyOp13
 70
     1
102
RTVSPropertyOp14
 70
     1
102
RTVSPropertyOp15
 70
     1
102
RTVSPropertyOp16
 70
     1
102
RTVSPropertyOp17
 70
     1
102
RTVSPropertyOp18
 70
     1
102
RTVSPropertyOp19
 70
     1
102
RTVSPropertyOp20
 70
     1
102
RTVSPropertyOp21
 70
     1
102
RTVSPropertyOp22
 70
     1
102
RTVSPropertyOp23
 70
     1
102
RTVSPropertyOp24
 70
     1
102
RTVSPropertyOp25
 70
     1
102
RTVSPropertyOp26
 70
     1
102
RTVSPropertyOp27
 70
     1
102
RTVSPropertyOp28
 70
     1
102
RTVSPropertyOp29
 70
     1
102
RTVSPropertyOp30
 70
     1
102
RTVSPropertyOp31
 70
     1
102
RTVSPropertyOp32
 70
     1
  0
XRECORD
  5
279
102
{ACAD_REACTORS
330
278
102
}
330
278
100
AcDbXrecord
280
     1
102
RTVSPropertyOp0
 70
     1
102
RTVSPropertyOp1
 70
     1
102
RTVSPropertyOp2
 70
     1
102
RTVSPropertyOp3
 70
     1
102
RTVSPropertyOp4
 70
     1
102
RTVSPropertyOp5
 70
     1
102
RTVSPropertyOp6
 70
     1
102
RTVSPropertyOp7
 70
     1
102
RTVSPropertyOp8
 70
     1
102
RTVSPropertyOp9
 70
     1
102
RTVSPropertyOp10
 70
     1
102
RTVSPropertyOp11
 70
     1
102
RTVSPropertyOp12
 70
     1
102
RTVSPropertyOp13
 70
     1
102
RTVSPropertyOp14
 70
     1
102
RTVSPropertyOp15
 70
     1
102
RTVSPropertyOp16
 70
     1
102
RTVSPropertyOp17
 70
     1
102
RTVSPropertyOp18
 70
     1
102
RTVSPropertyOp19
 70
     1
102
RTVSPropertyOp20
 70
     1
102
RTVSPropertyOp21
 70
     1
102
RTVSPropertyOp22
 70
     1
102
RTVSPropertyOp23
 70
     1
102
RTVSPropertyOp24
 70
     1
102
RTVSPropertyOp25
 70
     1
102
RTVSPropertyOp26
 70
     1
102
RTVSPropertyOp27
 70
     1
102
RTVSPropertyOp28
 70
     1
102
RTVSPropertyOp29
 70
     1
102
RTVSPropertyOp30
 70
     1
102
RTVSPropertyOp31
 70
     1
102
RTVSPropertyOp32
 70
     1
  0
XRECORD
  5
281
102
{ACAD_REACTORS
330
280
102
}
330
280
100
AcDbXrecord
280
     1
102
RTVSPropertyOp0
 70
     1
102
RTVSPropertyOp1
 70
     1
102
RTVSPropertyOp2
 70
     1
102
RTVSPropertyOp3
 70
     1
102
RTVSPropertyOp4
 70
     1
102
RTVSPropertyOp5
 70
     1
102
RTVSPropertyOp6
 70
     1
102
RTVSPropertyOp7
 70
     1
102
RTVSPropertyOp8
 70
     1
102
RTVSPropertyOp9
 70
     1
102
RTVSPropertyOp10
 70
     1
102
RTVSPropertyOp11
 70
     1
102
RTVSPropertyOp12
 70
     1
102
RTVSPropertyOp13
 70
     1
102
RTVSPropertyOp14
 70
     1
102
RTVSPropertyOp15
 70
     1
102
RTVSPropertyOp16
 70
     1
102
RTVSPropertyOp17
 70
     1
102
RTVSPropertyOp18
 70
     1
102
RTVSPropertyOp19
 70
     1
102
RTVSPropertyOp20
 70
     1
102
RTVSPropertyOp21
 70
     1
102
RTVSPropertyOp22
 70
     1
102
RTVSPropertyOp23
 70
     1
102
RTVSPropertyOp24
 70
     1
102
RTVSPropertyOp25
 70
     1
102
RTVSPropertyOp26
 70
     1
102
RTVSPropertyOp27
 70
     1
102
RTVSPropertyOp28
 70
     1
102
RTVSPropertyOp29
 70
     1
102
RTVSPropertyOp30
 70
     1
102
RTVSPropertyOp31
 70
     1
102
RTVSPropertyOp32
 70
     1
  0
ENDSEC
  0
EOF
